<?xml version="1.0" standalone="no"?>
<!DOCTYPE svg PUBLIC "-//W3C//DTD SVG 1.1//EN" "http://www.w3.org/Graphics/SVG/1.1/DTD/svg11.dtd" >
<svg xmlns="http://www.w3.org/2000/svg">
<metadata>Generated by IcoMoon</metadata>
<defs>
<font id="icomoon" horiz-adv-x="1024">
<font-face units-per-em="1024" ascent="960" descent="-64" />
<missing-glyph horiz-adv-x="1024" />
<glyph unicode="&#x20;" horiz-adv-x="512" d="" />
<glyph unicode="&#xe900;" glyph-name="eye" d="M475.794 672.036c-79.115-12.6-140.711-44.716-201.052-104.87-29.253-29.155-48.996-54.644-68.311-88.177-9.225-16.014-10.892-20.796-10.002-29.041 2.849-27.133 64.483-106.99 111.546-144.578 42.458-33.897 96.748-59.662 147.475-69.979 47.353-9.638 109.775-9.613 156.651 0.064 96.861 19.955 188.201 88.517 244.902 183.808 16.378 27.521 17.131 32.456 7.832 50.866-10.907 21.623-34.788 56.1-53.916 77.9-60.164 68.449-136.696 111.433-220.933 124.096-28.904 4.329-86.647 4.28-114.193-0.089zM588.069 632.451c29.405-4.782 69.654-18.11 93.761-31.073 54.831-29.494 112.511-85.781 142.029-138.629l6.425-11.507-8.974-14.784c-36.269-59.701-99.045-116.855-155.559-141.64-22.867-10.027-56.199-20.068-79.794-24.072-25.352-4.329-84.148-3.665-111.408 1.23-88.266 15.851-165.423 69.025-221.070 152.297-8.698 13.028-15.827 25.465-15.827 27.634 0 7.694 34.739 55.736 57.93 80.133 56.425 59.313 114.355 89.609 196.26 102.572 16.442 2.598 74.899 1.279 96.246-2.16zM491.833 578.826c-22.478-7.694-36.583-16.58-53.69-33.848-25.352-25.603-37.626-55.51-37.626-91.729 0-39.609 12.236-69.339 39.594-96.26 58.157-57.202 150.688-50.064 200.201 15.448 29.73 39.358 34.763 92.093 13.101 137.724-10.154 21.347-36.357 48.996-56.902 60.026-28.564 15.31-74.195 19.089-104.668 8.659zM559.691 541.765c24.033-7.581 46.649-26.405 57.63-47.953 8.083-15.827 11.596-40.022 8.334-57.542-13.554-72.803-99.434-102.912-154.191-54.103-54.255 48.342-35.24 137.587 33.937 159.337 12.865 4.054 41.779 4.192 54.28 0.251z" />
<glyph unicode="&#xe901;" glyph-name="crossed-eye" d="M312.666 670.444c-7.251-5.711-10.254-13.219-7.828-19.609 1.026-2.656 14.464-18.749 29.889-35.755l28.029-30.93-17.082-11.68c-46.65-31.93-93.044-83.586-118.931-132.444-9.986-18.866-9.484-24.231 4.44-48.397 29.723-51.539 75.823-100.129 124.77-131.482 55.93-35.857 112.103-51.4 185.126-51.219 47.548 0.128 89.837 8.009 124.001 23.114l12.257 5.429 10.755-11.434c5.904-6.289 21.201-22.74 33.997-36.589 26.219-28.388 30.134-30.146 42.504-19.085 8.137 7.277 9.137 17.108 2.516 24.513-88.849 98.937-433.396 476.428-436.27 477.967-6.251 3.35-11.781 2.592-18.161-2.399zM504.665 629.543c-36.012-2.901-43.391-7.79-39.886-26.437 2.297-12.321 8.431-14.822 29.403-12 45.688 6.16 102.362 0.758 143.957-13.694 66.275-23.023 127.49-73.627 168.135-138.989l11.691-18.802-8.405-13.849c-13.566-22.318-31.994-45.752-54.403-69.149-11.498-12.012-20.918-23.601-20.918-25.758 0.026-6.572 7.828-17.172 14.298-19.417 9.458-3.297 15.131 0.064 35.563 21.163 28.607 29.504 60.446 73.948 70.175 97.922 3.991 9.842 1.848 17.365-11.423 39.886-36.744 62.449-93.044 115.773-155.225 147.024-51.117 25.694-117.557 37.332-182.946 32.085zM415.137 526.77l24.653-27.003-7.341-10.948c-4.661-7.281-9.043-15.701-12.699-24.492l-0.391-1.086c-5.198-13.256-5.749-17.338-5.787-43.61-0.064-25.449 0.551-30.531 5.006-41.852 11.37-28.991 34.714-55.942 60.216-69.534 34.639-18.481 82.368-18.711 116.928-0.604 5.942 3.105 11.332 5.685 11.947 5.711 1.694 0.064 43.557-46.099 42.621-46.997-3.003-2.773-45.394-14.335-63.796-17.402-29.557-4.916-84.356-3.414-114.079 3.131-58.085 12.796-104.505 38.641-150.412 83.843-23.076 22.729-42.904 47.612-56.738 71.228l-7.534 12.834 7.79 12.834c24.423 40.169 66.991 85.82 101.491 108.779 11.050 7.368 20.854 13.117 21.778 12.77s12.796-12.77 26.347-27.618zM545.875 539.823c-2.516-2.335-5.236-7.752-6.032-12-2.207-11.808 3.516-17.84 22.408-23.601 33.624-10.254 56.353-35.948 62.732-70.854 3.195-17.493 8.624-23.023 21.175-21.639 14.015 1.539 18.108 7.443 16.286 23.408-5.647 49.974-42.429 92.173-92.391 105.968-14.49 3.991-18.749 3.761-24.193-1.283zM525.251 405.595c62.679-68.93 60.178-64.271 38.245-70.651-22.356-6.507-50.834-2.965-70.983 8.816-27.271 15.939-46.239 52.271-42.84 82.021 2.362 20.726 11.755 44.379 16.916 42.659 1.181-0.385 27.58-28.671 58.677-62.861z" />
<glyph unicode="&#xe902;" glyph-name="instagram" d="M344.045 858.56c-133.807 0-242.605-108.798-242.605-242.605v-335.915c0-133.807 108.798-242.605 242.605-242.605h335.915c133.807 0 242.605 108.798 242.605 242.605v335.915c0 133.807-108.798 242.605-242.605 242.605h-335.915zM735.934 709.265c20.528 0 37.325-16.797 37.325-37.325s-16.797-37.325-37.325-37.325c-20.528 0-37.325 16.797-37.325 37.325s16.797 37.325 37.325 37.325zM512 653.28c113.279 0 205.28-92.001 205.28-205.28s-92.001-205.28-205.28-205.28c-113.279 0-205.28 92.001-205.28 205.28s92.001 205.28 205.28 205.28zM512 615.955c-92.562 0-167.955-75.394-167.955-167.955s75.394-167.955 167.955-167.955c92.562 0 167.955 75.394 167.955 167.955s-75.394 167.955-167.955 167.955z" />
<glyph unicode="&#xe903;" glyph-name="calendar-empty" d="M305.28 885.845c-9.813-6.656-11.733-12.757-11.733-37.376v-21.376l-115.285-1.067-11.307-5.547c-12.712-6.142-22.662-16.327-28.351-28.857l-0.15-0.37-4.48-9.6v-667.307l4.48-9.6c6.357-13.483 15.36-22.741 28.501-29.227l11.307-5.547h667.477l11.307 5.547c12.712 6.142 22.662 16.327 28.351 28.857l0.15 0.37 4.48 9.6v667.392l-5.547 11.307c-6.142 12.712-16.327 22.662-28.857 28.351l-0.37 0.15-9.6 4.48-115.2 1.067v21.675c0 24.491-1.963 30.592-11.947 37.419-4.092 2.495-9.042 3.972-14.336 3.972-5.523 0-10.671-1.607-15.002-4.38l0.112 0.067c-9.813-6.656-11.733-12.757-11.733-37.461v-21.504h-331.093v21.803c0 24.576-1.92 30.677-11.947 37.504-4.092 2.495-9.042 3.972-14.336 3.972-5.523 0-10.671-1.607-15.002-4.38l0.112 0.067zM293.547 751.189c0-20.821 0.341-23.296 3.84-28.416 6.443-9.472 12.331-12.8 22.613-12.8s16.171 3.328 22.613 12.8c3.499 5.12 3.84 7.595 3.84 28.416v22.784h331.093v-22.784c0-20.821 0.341-23.296 3.84-28.416 6.443-9.472 12.331-12.8 22.613-12.8s16.171 3.328 22.613 12.8c3.499 5.12 3.84 7.595 3.84 28.416v22.784h51.072c44.331 0 51.456-0.341 53.803-2.688 2.389-2.389 2.645-10.453 2.219-69.547l-0.427-66.859h-650.24l-0.427 66.859c-0.427 59.093-0.171 67.157 2.219 69.547 2.347 2.347 9.472 2.688 53.803 2.688h51.072v-22.784zM837.973 354.261c0-203.989-0.256-227.157-2.688-229.547-2.432-2.432-34.091-2.688-323.285-2.688s-320.853 0.256-323.285 2.688c-2.432 2.389-2.688 25.557-2.688 229.547v226.859h651.947v-226.859z" />
<glyph unicode="&#xe904;" glyph-name="message" d="M121.643 761.899c-7.904-1.699-14.29-7.016-17.431-14.094l-0.062-0.157c-3.499-7.296-3.499-7.296-3.072-287.872l0.469-280.576 4.949-10.752c6.229-13.483 19.456-25.984 32.683-30.933 9.429-3.541 9.472-3.541 372.821-3.541s363.392 0 372.821 3.541c13.227 4.949 26.453 17.451 32.683 30.933l4.949 10.752 0.469 280.576 0.469 280.533-3.584 7.381c-2.237 4.387-5.35 8.032-9.132 10.821l-0.084 0.059c-5.632 3.499-6.059 3.499-394.88 3.883-214.101 0.256-391.424 0-394.069-0.555zM826.027 708.523c0-1.237-312.576-286.976-313.941-286.976-1.109 0-199.851 181.376-307.157 280.235l-7.808 7.211 314.453 0.043c172.971 0.043 314.453-0.171 314.453-0.512zM327.381 517.12c93.141-85.419 171.819-156.331 174.848-157.611 6.485-2.731 18.304-1.792 23.808 1.92 2.133 1.408 79.915 72.32 172.843 157.525l168.96 154.965 0.427-241.365c0.256-132.779 0.085-242.389-0.384-243.541-0.64-1.707-72.789-2.048-356.267-1.707l-355.456 0.427-0.427 242.901c-0.256 133.632 0.171 242.688 0.939 242.347 0.768-0.299 77.611-70.443 170.709-155.861z" />
<glyph unicode="&#xe905;" glyph-name="bulb" d="M119.289 470.261c13.031 0 23.594-9.881 23.594-22.261 0-12.294-10.74-22.261-23.594-22.261h-95.695c-13.031 0-23.594 9.881-23.594 22.261 0 12.294 10.74 22.261 23.594 22.261h95.695zM1000.406 470.261c13.031 0 23.594-9.881 23.594-22.261 0-12.294-10.74-22.261-23.594-22.261h-95.695c-13.031 0-23.594 9.881-23.594 22.261 0 12.294 10.74 22.261 23.594 22.261h95.695zM547.721 848.49c0-12.181-10.57-22.056-23.814-22.056-13.152 0-23.814 10.039-23.814 22.056v89.454c0 12.181 10.57 22.056 23.814 22.056 13.152 0 23.814-10.039 23.814-22.056v-89.454zM218.071 743.111c9.214-8.613 9.209-22.582-0.155-31.336-9.3-8.693-24.433-8.642-33.523-0.145l-67.667 63.254c-9.214 8.613-9.209 22.582 0.155 31.336 9.3 8.693 24.433 8.642 33.523 0.145l67.667-63.254zM863.421 711.629c-9.214-8.613-24.158-8.609-33.523 0.145-9.3 8.693-9.245 22.84-0.155 31.336l67.667 63.254c9.214 8.613 24.158 8.609 33.523-0.145 9.3-8.693 9.245-22.84 0.155-31.336l-67.667-63.254zM428.651 225.391v-111.304h166.698v111.304c104.095 31.267 166.698 138.52 166.698 244.87 0 118.237-111.95 222.609-238.14 222.609-150.004 0-261.953-104.372-261.953-222.609 0-106.35 62.602-213.602 166.698-244.87zM214.326 448c0 164.81 133.273 289.391 309.581 289.391 152.494 0 285.767-124.582 285.767-289.391 0-97.713-67.478-194.839-166.698-244.87v-89.043c0-24.348-22.959-44.522-47.003-44.522h-167.323c-21.651 0-47.628 21.535-47.628 44.522v89.043c-99.22 50.031-166.698 147.157-166.698 244.87zM428.651 47.304h166.698c13.152 0 23.814-9.967 23.814-22.261s-10.662-22.261-23.814-22.261h-166.698c-13.152 0-23.814 9.967-23.814 22.261s10.662 22.261 23.814 22.261zM452.465-19.478h119.070c13.152 0 23.814-9.967 23.814-22.261s-10.662-22.261-23.814-22.261h-119.070c-13.152 0-23.814 9.967-23.814 22.261s10.662 22.261 23.814 22.261z" />
<glyph unicode="&#xe906;" glyph-name="linkedin" d="M819.2 823.467h-614.4c-37.717 0-68.267-30.549-68.267-68.267v-614.4c0-37.717 30.549-68.267 68.267-68.267h614.4c37.717 0 68.267 30.549 68.267 68.267v614.4c0 37.717-30.549 68.267-68.267 68.267zM373.897 209.067h-100.693v323.994h100.693v-323.994zM322.526 579.379c-32.461 0-58.709 26.317-58.709 58.709s26.283 58.675 58.709 58.675c32.358 0 58.675-26.317 58.675-58.675 0-32.393-26.317-58.709-58.675-58.709zM751.070 209.067h-100.625v157.559c0 37.581-0.683 85.914-52.326 85.914-52.395 0-60.45-40.926-60.45-83.183v-160.29h-100.625v323.994h96.597v-44.271h1.365c13.449 25.463 46.285 52.326 95.266 52.326 101.956 0 120.798-67.106 120.798-154.351v-177.698z" />
<glyph unicode="&#xe907;" glyph-name="facebook" d="M512 857.6c-226.202 0-409.6-183.398-409.6-409.6 0-205.346 151.279-374.921 348.365-404.548v296.004h-101.342v107.657h101.342v71.646c0 118.613 57.788 170.667 156.365 170.667 47.206 0 72.192-3.516 84.002-5.086v-93.969h-67.243c-41.847 0-56.457-39.697-56.457-84.412v-58.846h122.641l-16.623-107.657h-106.018v-296.858c199.919 27.102 354.167 198.042 354.167 405.402 0 226.202-183.398 409.6-409.6 409.6z" />
<glyph unicode="&#xe908;" glyph-name="check" d="M384 268.8l-179.2 179.2-59.733-59.733 238.933-238.933 512 512-59.733 59.733-452.267-452.267z" />
<glyph unicode="&#xe909;" glyph-name="arrow-back" d="M747.093 794.88l-75.947 75.52-421.973-422.4 422.4-422.4 75.52 75.52-346.88 346.88 346.88 346.88z" />
<glyph unicode="&#xe90a;" glyph-name="arrow-forward" d="M265.813 96.853l75.52-75.52 426.667 426.667-426.667 426.667-75.52-75.52 351.147-351.147z" />
<glyph unicode="&#xe90b;" glyph-name="chevron-right" d="M388.849 752.316c-9.738-4.229-15.398-16.458-12.568-27.25 1.399-5.283 18.835-23.323 136.967-141.573l135.343-135.493-135.343-135.493c-147.76-147.911-140.701-139.948-136.93-153.571 2.152-7.774 9.851-15.36 16.91-16.684 14.193-2.679 4.116-11.777 163.572 147.722 130.587 130.549 146.856 147.308 147.76 152.365 2.566 14.381 11.664 4.304-146.251 162.442-84.807 84.958-147.233 146.327-150.063 147.572-2.851 1.243-6.168 1.965-9.655 1.965-3.521 0-6.873-0.737-9.905-2.063l0.16 0.060z" />
<glyph unicode="&#xe90c;" glyph-name="chevron-left" d="M615.417 752.282c-2.491-1.131-69.861-67.483-149.724-147.496-157.917-158.143-148.82-148.066-146.253-162.442 0.904-5.057 17.173-21.816 147.763-152.365 159.462-159.499 149.385-150.407 163.577-147.724 7.134 1.322 14.833 8.985 16.947 16.797 3.622 13.548 10.529 5.811-136.967 153.463l-135.345 135.498 135.345 135.498c116.663 116.776 135.574 136.327 136.967 141.497 0.494 1.795 0.78 3.856 0.78 5.987 0 12.925-10.479 23.398-23.398 23.398-3.509 0-6.841-0.774-9.83-2.161l0.143 0.058z" />
<glyph unicode="&#xe90d;" glyph-name="calendar" d="M285.115 928.55c-10.768-7.306-12.878-14.002-12.878-41.021v-23.461l-126.53-1.172-12.412-6.087c-13.952-6.742-24.872-17.922-31.116-31.672l-0.165-0.405-4.915-10.535v-732.397l4.915-10.535c6.977-14.798 16.86-24.961 31.281-32.077l12.412-6.087h732.582l12.412 6.087c13.952 6.742 24.872 17.922 31.116 31.672l0.165 0.405 4.915 10.535v732.487l-6.087 12.412c-6.742 13.952-17.922 24.872-31.672 31.116l-0.405 0.165-10.535 4.915-126.435 1.172v23.79c0 26.881-2.153 33.577-13.112 41.069-4.492 2.74-9.922 4.357-15.736 4.357-6.063 0-11.711-1.762-16.467-4.805l0.122 0.072c-10.768-7.306-12.878-14.002-12.878-41.116v-23.599h-363.388v23.928c0 26.971-2.105 33.667-13.112 41.164-4.492 2.74-9.922 4.357-15.736 4.357-6.063 0-11.711-1.762-16.467-4.805l0.122 0.072zM272.237 780.764c0-22.851 0.376-25.566 4.215-31.186 7.073-10.397 13.536-14.050 24.818-14.050s17.746 3.653 24.818 14.050c3.839 5.62 4.215 8.335 4.215 31.186v25.004h363.388v-25.004c0-22.851 0.376-25.566 4.215-31.186 7.073-10.397 13.536-14.050 24.818-14.050s17.746 3.653 24.818 14.050c3.839 5.62 4.215 8.335 4.215 31.186v25.004h56.052c48.656 0 56.476-0.376 59.053-2.948 2.624-2.624 2.905-11.473 2.434-76.332l-0.467-73.379h-713.665l-0.467 73.379c-0.467 64.858-0.186 73.707 2.434 76.332 2.577 2.577 10.397 2.948 59.053 2.948h56.052v-25.004zM869.768 345.116c0-223.884-0.281-249.312-2.948-251.937-2.667-2.667-37.416-2.948-354.82-2.948s-352.148 0.281-354.82 2.948c-2.667 2.624-2.948 28.052-2.948 251.937v248.989h715.537v-248.989zM344.353 475.162c-11.38-4.052-19.385-14.734-19.385-27.283 0-6.357 2.050-12.232 5.53-17.004l-0.057 0.080c7.539-10.583 12.502-11.85 49.918-12.926l34.091-0.938-17.655-22.337c-20.418-25.847-22.666-32.172-16.341-46.455 4.544-10.254 12.735-15.593 26.647-17.327 20.837-2.624 33.153-12.316 38.587-30.391 1.124-3.12 1.776-6.727 1.776-10.477 0-3.038-0.427-5.975-1.221-8.76l0.055 0.225c-5.758-27.724-40.178-41.488-62.186-24.914-13.393 10.021-23.085 13.859-31.515 12.412-13.829-2.61-24.148-14.59-24.161-28.984v-0.001c0-9.973 3.605-16.622 13.769-25.523 17.327-15.222 39.521-23.132 65.044-23.18 0.386-0.005 0.84-0.008 1.295-0.008 37.796 0 70.48 21.884 86.071 53.672l0.248 0.564c22.57 45.098 9.459 96.511-32.405 126.764l-5.477 3.982 22.804 28.567c13.721 17.141 23.694 31.467 25.004 35.825 4.353 14.469-5.106 31-20.089 35.168-11.659 3.229-130.841 2.624-140.342-0.748zM645.322 476.705c-2.386-0.514-22.899-14.798-45.565-31.748-42.94-32.172-46.546-35.963-46.546-49.218 0-18.308 16.812-32.453 34.606-29.129 3.558 0.7 12.597 5.806 20.137 11.426l13.626 10.254 0.938-88.648c0.657-62.425 1.591-89.724 3.139-92.344 1.172-2.062 4.825-6.277 8.054-9.363 5.387-5.106 7.025-5.62 18.779-5.62 12.173 0 13.297 0.376 19.622 6.511 3.721 3.706 6.644 8.21 8.489 13.233l0.079 0.25c1.219 4.496 1.686 50.013 1.357 125.592-0.514 114.728-0.657 118.71-4.263 124.749-5.827 8.809-15.685 14.533-26.882 14.533-1.969 0-3.895-0.176-5.764-0.515l0.194 0.032z" />
<glyph unicode="&#xe90e;" glyph-name="account" d="M488.107 857.557c-99.626-8.84-183.63-68.167-226.97-151.937l-0.742-1.577c-66.389-129.92-22.315-289.28 101.461-367.275l15.36-9.643-16.683-5.504c-98.645-32.725-188.245-101.845-245.333-189.355-13.739-21.035-17.92-29.397-17.92-35.84 0.046-14.81 12.063-26.799 26.88-26.799 2.567 0 5.049 0.36 7.4 1.032l-0.19-0.046c7.893 2.347 13.013 8.235 30.677 35.2 57.216 87.381 151.979 153.088 254.379 176.469 35.371 8.064 50.347 9.557 95.573 9.557 45.312 0 60.629-1.536 95.573-9.6 108.538-25.996 198.719-91.153 256.723-179.356l0.984-1.593c8.917-13.312 18.389-25.813 21.035-27.776 6.656-4.907 21.248-4.907 27.819-0.043 12.544 9.429 15.659 22.144 8.661 35.883-12.715 25.088-41.643 63.232-70.272 92.715-51.894 53.63-116.127 94.994-188.144 119.543l-3.344 0.99-13.952 4.693 15.189 9.6c66.318 42.363 113.357 109.913 127.779 188.852l0.264 1.74c2.383 14.582 3.744 31.388 3.744 48.512s-1.361 33.93-3.982 50.316l0.238-1.804c-18.708 103.473-91.527 186.283-187.531 218.973l-1.994 0.59c-27.224 9.045-58.566 14.263-91.126 14.263-7.586 0-15.105-0.283-22.548-0.84l0.992 0.060zM549.12 802.133c85.729-14.774 154.37-75.241 180.655-154.959l0.465-1.628c6.699-20.796 10.56-44.72 10.56-69.547s-3.862-48.751-11.017-71.205l0.456 1.659c-26.75-81.346-95.391-141.813-179.749-156.391l-1.371-0.196c-11.118-1.552-23.962-2.438-37.014-2.438-13.278 0-26.342 0.917-39.132 2.691l1.479-0.168c-43.995 7.802-82.579 26.948-113.805 54.29l0.269-0.231c-50.603 45.056-77.611 104.875-77.611 171.989s27.008 126.933 77.611 171.989c30.704 26.859 68.863 45.944 110.975 53.791l1.452 0.225c18.987 3.2 56.448 3.243 75.776 0.128z" />
<glyph unicode="&#xe90f;" glyph-name="quotes" d="M149.163 729.557c-23.95-5.085-42.387-23.938-46.791-47.716l-0.057-0.37c-2.347-12.459-2.133-262.4 0.213-275.413 3.541-19.115 15.445-34.603 33.621-43.648l8.064-4.011 260.267-0.939v-27.349c0-33.579-2.389-45.739-13.696-69.12-5.324-11.753-12.245-21.815-20.632-30.446l0.024 0.025c-25.387-27.221-52.907-40.277-91.477-43.563-17.621-1.493-22.229-3.669-29.099-13.781-7.424-10.923-3.627-27.605 8.107-35.541 5.675-3.84 6.997-4.011 25.6-3.157 22.897 0.808 44.371 6.052 63.866 14.894l-1.060-0.43c59.987 26.778 102.796 82.407 111.012 148.76l0.092 0.914c1.237 10.325 1.877 74.88 1.877 196.352 0 200.491 0.427 192.725-11.093 210.133-7.094 10.003-16.815 17.718-28.163 22.21l-0.423 0.148c-6.571 2.645-18.987 2.944-135.253 3.2-70.4 0.171-131.157-0.341-134.997-1.152zM613.547 729.6c-15.713-2.894-28.934-11.825-37.419-24.25l-0.128-0.198c-11.435-17.237-11.264-14.549-10.709-166.059l0.469-136.32 4.523-9.685c6.101-12.971 16.768-24.192 28.501-29.952l9.643-4.736 260.267-0.939v-27.861c0-22.357-0.683-30.464-3.456-41.344-14.451-57.259-64.566-99.312-124.833-101.37l-0.223-0.006c-18.048 0-30.208-10.965-30.208-27.264 0-9.301 4.565-17.493 12.373-22.229 11.051-6.741 45.739-3.541 76.075 7.083 60.544 21.163 105.856 73.045 120.405 137.984 3.584 16 3.627 18.517 3.627 208.213 0 184.576-0.128 192.341-3.243 200.533-6.248 16.689-18.996 29.702-35.082 36.161l-0.417 0.148c-6.699 2.688-18.688 2.944-135.339 3.2-70.4 0.171-131.072-0.341-134.827-1.109zM404.48 543.573v-133.163l-248.32 0.896-0.427 130.56c-0.256 71.808-0.085 131.499 0.341 132.693 0.64 1.664 27.179 2.133 124.629 2.133h123.776v-133.12zM868.267 543.147l0.427-132.736-248.32 0.896-0.427 132.693-0.427 132.736 248.32-0.896 0.427-132.693z" />
<glyph unicode="&#xe910;" glyph-name="chevron-up" d="M503.284 617.693c-2.211-1.005-62.051-59.938-132.984-131.006-140.159-140.393-132.245-131.577-129.866-144.179 1.173-6.334 7.98-13.173 14.917-15.052 12.034-3.217 5.161-9.354 136.303 121.652l120.347 120.213 120.347-120.213c131.376-131.24 124.303-124.971 136.405-121.62 6.904 1.912 13.645 8.751 14.819 15.020 2.379 12.603 10.292 3.786-129.866 144.179-75.327 75.458-130.773 129.969-133.288 131.072-2.502 1.099-5.419 1.738-8.488 1.738-3.125 0-6.096-0.666-8.78-1.861l0.137 0.055z" />
<glyph unicode="&#xe911;" glyph-name="ac-unit" d="M405.248 824.491c-7.596-3.883-13.216-10.717-15.398-18.95l-0.047-0.208c-2.56-13.781-0.256-16.896 48.981-66.432l45.909-46.123v-98.688c0-78.251-0.427-98.517-2.133-97.835-4.395 1.749-166.059 95.403-167.979 97.365-1.067 1.109-9.387 29.653-18.432 63.445s-17.579 63.189-18.987 65.365c-7.040 10.709-25.643 14.165-36.523 6.741-6.699-4.565-11.947-13.739-11.947-20.949 0-2.859 6.485-29.355 14.379-58.88s14.123-53.973 13.781-54.272c-0.341-0.341-24.533-7.040-53.76-14.891s-55.509-15.659-58.411-17.323c-11.264-6.656-15.275-25.301-7.723-36.352 4.693-6.869 13.781-11.947 21.461-11.947 4.651 0 63.275 14.976 118.357 30.251l9.685 2.645 85.419-49.28c47.019-27.136 85.461-49.707 85.461-50.176s-38.443-23.040-85.461-50.133l-85.504-49.323-9.643 2.688c-55.040 15.232-113.664 30.208-118.315 30.208-8.874-0.552-16.583-5.105-21.403-11.86l-0.059-0.086c-7.552-11.051-3.541-29.696 7.723-36.352 2.901-1.664 29.184-9.472 58.411-17.323s53.419-14.549 53.76-14.891c0.341-0.299-5.888-24.747-13.781-54.272s-14.379-56.021-14.379-58.88c0-7.211 5.248-16.384 11.947-20.949 10.88-7.424 29.483-3.968 36.523 6.741 1.408 2.176 9.941 31.573 18.987 65.365s17.365 62.336 18.432 63.445c1.92 1.963 163.584 95.616 167.979 97.365 1.707 0.683 2.133-19.584 2.133-97.835v-98.688l-45.909-46.123c-49.536-49.792-51.541-52.565-48.896-66.816 1.621-8.661 11.733-18.773 20.395-20.395 13.995-2.603 17.451-0.171 61.184 43.264l40.533 40.277 40.533-40.277c43.733-43.435 47.189-45.867 61.184-43.264 8.661 1.621 18.773 11.733 20.395 20.395 2.645 14.251 0.64 17.024-48.896 66.816l-45.909 46.123v98.688c0 84.693 0.341 98.517 2.432 97.749 4.48-1.707 165.632-95.189 167.68-97.28 1.109-1.109 9.344-29.568 18.389-63.232 9.899-37.077 17.749-63.147 19.883-66.133 10.752-15.147 35.584-13.141 44.459 3.584 1.722 3.27 2.855 7.104 3.152 11.169l0.006 0.095c0 2.944-6.443 29.44-14.379 58.923-7.893 29.483-14.123 53.803-13.824 54.101 0.256 0.299 24.192 6.869 53.163 14.677 28.971 7.765 55.125 15.403 58.069 16.939 12.245 6.315 16.64 25.259 8.661 37.163-4.822 6.834-12.53 11.353-21.313 11.774l-0.063 0.002c-3.072 0-33.152-7.381-66.816-16.427l-61.184-16.427-85.461 49.28c-47.019 27.093-85.461 49.664-85.461 50.133s38.443 23.040 85.419 50.091l85.461 49.28 61.227-16.427c33.664-9.003 63.744-16.384 66.816-16.384 8.846 0.423 16.554 4.942 21.318 11.689l0.058 0.087c7.979 11.904 3.584 30.848-8.661 37.163-2.944 1.536-29.056 9.173-58.027 16.939-32.578 8.144-50.374 13.168-68.072 18.42l14.867-3.785c-0.299 0.299 5.931 24.661 13.824 54.144 7.936 29.483 14.379 55.979 14.379 58.923 0 13.355-11.989 24.875-25.941 24.875-9.899 0-16.853-3.2-21.675-10.027-2.133-2.987-9.984-29.056-19.883-66.133-9.045-33.664-17.28-62.123-18.389-63.232-2.048-2.091-163.2-95.573-167.68-97.28-2.091-0.768-2.432 13.056-2.432 97.749v98.688l45.909 46.123c49.536 49.792 51.541 52.565 48.896 66.816-1.621 8.661-11.733 18.773-20.395 20.395-13.995 2.603-17.451 0.171-61.184-43.307l-40.576-40.277-39.637 39.509c-25.6 25.515-41.941 40.491-46.037 42.197-3.155 1.554-6.867 2.463-10.792 2.463-3.712 0-7.234-0.813-10.397-2.271l0.154 0.064z" />
<glyph unicode="&#xe912;" glyph-name="heating" d="M553.946 347.634c21.435-47.119 37.056-93.243 44.424-135.773 3.058-17.65 4.63-34.401 4.63-50.115 1.879-50.054-12.589-98.232-41.107-138.060-15.377-21.475 3.516-50.676 29.406-45.452 151.124 30.492 259.685 163.462 259.325 317.632 0 248.032-275.658 646.681-377.253 646.681-16.066 0-29.091-13.024-29.091-29.091 0-123.991-30.17-192.111-114.536-305.032-6.069-8.113-6.069-8.113-12.166-16.267-82.678-110.746-113.942-179.664-113.942-296.359-0.765-153.956 107.8-286.979 258.926-317.111 25.95-5.174 44.772 24.174 29.244 45.6-28.625 39.499-43.084 87.501-41.036 136.239 0.026 18.37 2.036 36.878 5.934 56.543 8.043 40.581 23.739 84.552 44.862 129.554 8.595 18.311 17.667 35.897 26.848 52.417 8.73-16.189 17.353-33.429 25.531-51.404zM661.161 162.849c0.021 18.105-1.861 38.148-5.463 58.944-8.322 48.035-25.465 98.655-48.792 149.934-11.682 25.68-24.183 49.892-36.697 71.952-7.559 13.325-13.503 23.063-17.026 28.507-11.39 17.597-37.089 17.738-48.67 0.266-3.641-5.493-9.79-15.316-17.614-28.741-12.957-22.233-25.901-46.591-38-72.367-22.974-48.944-40.19-97.175-49.265-142.964-4.601-23.215-7.019-45.465-7.019-66.633-1.496-35.259 4.086-70.615 16.168-103.889-88.657 43.739-147.475 135.048-146.964 237.795 0 101.621 26.52 160.080 102.383 261.697 6.044 8.083 6.044 8.083 12.153 16.25 79.522 106.438 116.256 180.030 124.35 289.284 33.773-32.32 91.557-97.026 139.052-165.713 94.568-136.762 152.686-278.868 152.686-401.375 0.24-103.051-58.801-194.518-147.702-238.398 12.127 33.546 17.791 69.332 16.42 105.451z" />
<glyph unicode="&#xe913;" glyph-name="parking" d="M554.667 832h-298.667v-768h170.667v256h128c141.227 0 256 114.773 256 256s-114.773 256-256 256zM563.2 490.667h-136.533v170.667h136.533c46.933 0 85.333-38.4 85.333-85.333s-38.4-85.333-85.333-85.333z" />
<glyph unicode="&#xe914;" glyph-name="garage" d="M520.941 851.485l387.425-215.212c5.954-3.355 9.492-9.492 9.307-16.384v-545.11c0-10.054-8.194-18.056-18.246-17.872h-775.41c-10.052 0-18.056 8.194-17.871 18.248v544.927c0 6.699 3.537 12.843 9.492 16.199l387.241 215.212c5.586 3.163 12.477 3.163 18.056 0zM251.364 93.943h521.286v76.334h-521.286v-76.334zM772.642 207.51v70.746h-521.286v-70.746h521.286zM251.364 315.496h521.286v70.746h-521.286v-70.746zM772.642 423.469v70.746h-521.286v-70.746h521.286zM809.883 93.945h70.748v515.141l-368.619 204.976-368.619-204.976v-515.141h70.748v418.33c0 10.237 7.819 19.176 18.056 19.176h559.637c10.428 0 18.056-8.939 18.056-19.176v-418.33z" />
<glyph unicode="&#xe915;" glyph-name="chevron-down" d="M239.673 574.615c-10.824-3.82-16.34-13.9-14.216-25.819 0.848-4.739 16.093-20.441 138.464-142.777 149.496-149.531 139.913-140.868 153.388-138.464 4.739 0.848 20.441 16.093 142.777 138.464 149.461 149.427 140.939 139.983 138.426 153.281-1.237 6.684-8.419 13.9-15.739 15.881-12.697 3.396-5.447 9.868-143.803-128.348l-126.969-126.827-126.969 126.827c-140.727 140.584-131.672 132.628-145.36 127.783z" />
<glyph unicode="&#xe916;" glyph-name="home-price" d="M66.267 463.031v-405.215c0-13.874 11.251-25.122 25.125-25.122h810.432c13.943 0 25.309 11.181 25.532 25.122v405.215c-0.055 6.86-2.825 13.415-7.7 18.233l-405.215 405.215c-9.919 9.676-25.745 9.676-35.656 0l-405.215-405.215c-4.763-4.865-7.394-11.43-7.293-18.233zM116.916 452.899l379.691 379.691 380.092-379.691v-369.559h-759.783v369.559zM603.181 321.202c0 47.667-38.643 86.31-86.31 86.31h-40.521c-18.119 1.94-31.864 17.233-31.864 35.455s13.745 33.515 31.864 35.455h101.307c9.816-1.245 19.458 3.295 24.764 11.647s5.301 19.015 0 27.365c-5.301 8.352-14.948 12.889-24.764 11.647h-55.511v14.99c0 14.099-11.433 25.532-25.532 25.532-13.941-0.222-25.124-11.589-25.122-25.532v-14.18l-12.565-2.433c-42.811-9.427-71.763-49.449-67.304-93.065s40.895-76.958 84.732-77.532h40.521c13.574 1.453 26.781-4.972 34.026-16.543s7.238-26.26 0-37.832c-7.238-11.571-20.452-17.996-34.026-16.543h-101.307c-12.756-1.617-22.317-12.465-22.317-25.323s9.56-23.706 22.317-25.323h55.921v-15.399c0-13.874 11.248-25.122 25.122-25.122 13.943 0 25.309 11.181 25.532 25.122v12.565l12.156 4.456c39.933 8.388 68.614 43.482 68.887 84.287v0z" />
<glyph unicode="&#xe917;" glyph-name="shop" d="M181.564 848.444c-19.25-5.554-34.496-19.359-41.904-37.233l-0.156-0.424c-1.632-4.4-17.014-56.985-34.119-116.875l-31.169-108.889 0.907-46.277c0.77-39.792 1.498-48.457 4.899-61.705 8.903-33.153 26.46-61.426 50.102-83.191l0.121-0.11 12.432-11.433 0.907-145.459c0.907-143.782 0.953-145.551 4.765-153.854 4.628-9.981 15.382-22.278 24.455-27.993 16.469-10.434-2.086-9.892 339.193-9.892s322.724-0.545 339.193 9.892c9.073 5.718 19.827 18.013 24.455 27.993 3.812 8.303 3.858 10.072 4.765 153.854l0.907 145.459 12.295 11.296c29.27 26.462 49.028 62.961 53.825 104.029l0.073 0.777c0.999 8.711 1.815 32.031 1.86 51.812v35.98l-30.898 108.301c-17.014 59.573-32.621 112.61-34.71 117.874-6.516 14.277-17.483 25.579-31.101 32.357l-0.388 0.173-10.888 5.082-325.763 0.362c-254.306 0.228-327.577-0.183-334.066-1.906zM829.189 793.136c1.632-1.044 53.039-175.088 53.039-179.533 0-0.228-166.602-0.454-370.228-0.454s-370.228 0.228-370.228 0.454c0 4.445 51.404 178.489 53.039 179.533 3.039 1.906 631.339 1.906 634.377 0zM346.85 527.672c0-31.352-2.268-43.101-11.978-61.568-12.794-24.501-36.025-44.009-62.658-52.72-18.466-6.080-47.729-6.080-65.109-0.046-27.015 9.435-48.805 28.065-62.093 52.052l-0.294 0.576c-9.755 18.603-12.024 30.307-12.024 61.705v27.403h214.152v-27.403zM619.074 527.672c0-31.397-2.268-43.101-12.024-61.705-33.483-63.882-119.552-77.087-170.414-26.179-24.139 24.181-31.714 45.19-31.714 87.883v27.403h214.152v-27.403zM891.301 527.672c0-31.397-2.268-43.101-12.024-61.705-17.504-32.375-50.144-54.607-88.18-57.239l-0.34-0.018c-50.451-3.358-98.047 31.169-110.749 80.396-1.997 7.758-2.859 19.419-2.859 38.565v27.403h214.152v-27.403zM382.285 415.287c2.768-3.992 10.48-12.432 17.151-18.737 47.23-44.554 116.196-56.76 177.581-31.443 23.049 9.481 51.633 32.076 67.057 52.948l4.037 5.444 4.037-5.444c24.047-32.576 63.337-56.532 104.852-63.927 14.883-2.631 44.962-2.314 61.251 0.636l5.898 1.090v-125.041c0-94.871-0.545-125.632-2.177-127.267-3.176-3.176-616.773-3.176-619.948 0-1.632 1.632-2.177 32.396-2.177 127.176v124.996l10.434-1.498c18.329-2.631 54.537-1.544 68.373 2.043 36.071 9.393 73.138 33.483 90.968 59.208 2.722 3.946 5.535 7.125 6.26 7.125s3.584-3.267 6.397-7.304z" />
<glyph unicode="&#xe918;" glyph-name="homes" d="M71.418 542.844v-400.537c0-6.586 2.613-12.901 7.276-17.557s10.974-7.276 17.557-7.276h480.642c13.782 0 25.016 11.053 25.236 24.833v400.537c0.022 6.674-2.738 13.064-7.612 17.624l-240.32 240.32c-4.55 4.903-10.936 7.694-17.624 7.694s-13.074-2.786-17.624-7.694l-240.32-240.32c-4.771-4.601-7.384-10.995-7.209-17.624zM121.485 532.429l215.089 215.487 215.487-215.487v-364.886h-430.574v364.886zM737.111 117.474c13.782 0 25.016 11.053 25.236 24.833v440.586c0.022 6.674-2.738 13.064-7.612 17.624l-200.268 200.268c-7.104 7.154-17.83 9.307-27.144 5.44s-15.363-12.978-15.31-23.064c-0.032-6.598 2.563-12.938 7.21-17.624l193.059-193.059v-430.174c0-6.586 2.614-12.901 7.277-17.557s10.974-7.276 17.557-7.276v0zM897.323 117.474c13.782 0 25.016 11.053 25.236 24.833v480.642c0.022 6.674-2.738 13.064-7.612 17.624l-160.212 160.212c-7.104 7.154-17.83 9.307-27.144 5.44s-15.363-12.978-15.31-23.064c-0.032-6.598 2.563-12.938 7.21-17.624l153.002-153.003v-470.228c0-13.712 11.121-24.833 24.834-24.833v0z" />
<glyph unicode="&#xe919;" glyph-name="external-resource" d="M605.657 800.796c-5.862-1.696-12.087-8.292-13.788-14.584-0.374-1.49-0.59-3.203-0.59-4.967 0-9.486 6.248-17.501 14.858-20.169l0.149-0.039c3.134-0.9 35.156-1.396 88.165-1.396h83.243l-158.716-158.82c-173.269-173.372-163.443-162.647-160.081-174.769 2.963-10.722 13.249-16.819 24.803-14.749 4.457 0.796 22.703 18.61 168.469 164.281l163.481 163.412v-186.684l3.031-5.731c3.563-6.456 10.334-10.749 18.098-10.749 7.351 0 13.792 3.846 17.447 9.63l0.052 0.085c2.596 4.231 2.665 6.928 2.665 122.991v118.668l-3 4.396c-1.942 2.75-4.175 5.112-6.691 7.141l-0.064 0.055c-3.73 2.793-4.292 2.793-120.529 3.031-69.020 0.135-118.502-0.3-120.995-1.035zM217.571 708.535c-13.622-3.661-24.11-12.649-30.399-26.071l-3.465-7.396v-520.739l3.496-7.488c4.965-10.519 11.988-17.749 22.237-22.807l8.823-4.327h520.873l8.823 4.327c9.916 4.796 17.682 12.739 22.123 22.521l0.114 0.286 3.496 7.488 0.735 289.133-3.061 5.792c-3.56 6.477-10.339 10.797-18.123 10.797-7.354 0-13.803-3.853-17.458-9.646l-0.052-0.085c-2.596-4.261-2.665-6.992-2.665-145.063 0-126.187-0.234-140.97-2.1-142.84-1.897-1.897-26.603-2.1-252.281-2.1s-250.377 0.196-252.281 2.1c-1.897 1.897-2.1 26.603-2.1 252.281s0.196 250.377 2.1 252.281c1.861 1.861 16.649 2.1 142.84 2.1 138.071 0 140.801 0.064 145.063 2.665 5.822 3.555 9.657 9.87 9.657 17.084 0 0.093-0.001 0.186-0.002 0.277v-0.018c0.015 0.247 0.021 0.537 0.021 0.831 0 7.568-4.303 14.125-10.595 17.362l-0.107 0.054-5.731 3.031-141.94-0.104c-108.076-0.064-143.44-0.465-148.063-1.727z" />
<glyph unicode="&#xe91a;" glyph-name="printer" d="M216.281 861.85c-4.996-2.556-9.095-6.232-12.072-10.713l-0.071-0.115c-3.625-6.26-3.859-10.261-4.378-84.088l-0.519-77.542-37.149-0.753c-31.589-0.657-38.935-1.41-49.483-4.85-30.789-10.171-57.157-36.015-66.857-65.632-3.482-10.595-3.625-18.694-3.625-201.556 0-190.399 0-190.537 3.954-195.858 2.168-2.92 6.731-7.251 10.171-9.556 6.169-4.192 6.779-4.235 74.579-4.235h68.41l0.519-86.16c0.567-83.006 0.705-86.393 4.426-92.748 2.756-4.261 6.135-7.85 10.061-10.753l0.11-0.076 6.307-4.235h290.774c313.941 0 295.672-0.567 304.899 9.699 7.908 8.756 8.284 13.606 8.284 100.757v83.521h68.457c67.89 0 68.505 0.048 74.669 4.235 3.435 2.353 8.003 6.641 10.171 9.556 3.954 5.274 3.954 5.979 4.521 190.208 0.376 131.122-0.048 188.184-1.553 196.187-4.802 25.563-24.010 53.060-46.138 66.056-21.657 12.71-30.46 14.597-71.892 15.445l-38.087 0.8-0.519 77.494c-0.519 73.826-0.753 77.828-4.378 84.088-3.053 4.597-7.152 8.273-11.967 10.748l-0.176 0.085-8.38 4.235h-574.679l-8.38-4.235zM764.358 748.383v-59.325h-504.717v118.645h504.717v-59.325zM892.56 627.666c12.758-3.816 26.697-16.902 29.755-28.059 1.458-5.226 2.12-57.253 2.12-170.905v-163.373h-99.58l-0.567 43.175c-0.657 48.025-0.848 48.587-14.735 58.053l-6.217 4.235h-290.774c-313.941 0-295.534 0.567-304.995-9.699-6.731-7.346-8.194-17.422-8.194-57.629v-38.135h-99.813v163.373c0 111.49 0.657 165.727 2.072 170.719 3.016 10.876 15.678 23.305 28.107 27.588 9.98 3.435 22.319 3.53 381.455 3.625 335.879 0.048 372.085-0.233 381.36-2.968zM770.947 544.612c-16.054-3.482-26.787-11.067-33.1-23.448-3.11-5.85-4.94-12.789-4.94-20.155 0-24.080 19.519-43.599 43.599-43.599 0.213 0 0.427 0.001 0.639 0.004h-0.034c0.284-0.006 0.625-0.010 0.961-0.010 17.106 0 31.799 10.321 38.198 25.071l0.104 0.269c2.73 5.384 4.331 11.737 4.331 18.464 0 10.737-4.074 20.526-10.766 27.896l0.033-0.036c-9.795 11.443-26.745 18.222-39.031 15.535zM764.358 191.873v-120.527h-504.717v241.058h504.717v-120.527z" />
<glyph unicode="&#xe91b;" glyph-name="hamburger" d="M77.355 729.429c-7.509-2.176-15.488-10.624-17.664-18.688-0.498-1.936-0.785-4.158-0.785-6.447 0-12.222 8.158-22.54 19.325-25.804l0.19-0.048c4.395-1.195 145.152-1.621 437.205-1.323 427.307 0.427 430.763 0.469 436.395 3.84 7.777 4.842 12.877 13.346 12.877 23.040s-5.1 18.198-12.762 22.974l-0.114 0.066c-5.632 3.371-8.96 3.413-437.461 3.712-260.523 0.171-433.963-0.384-437.205-1.323zM77.355 473.429c-7.509-2.176-15.488-10.624-17.664-18.688-0.498-1.936-0.785-4.158-0.785-6.447 0-12.222 8.158-22.54 19.325-25.804l0.19-0.048c4.395-1.195 145.152-1.621 437.205-1.323 427.307 0.427 430.763 0.469 436.395 3.84 7.777 4.842 12.877 13.346 12.877 23.040s-5.1 18.198-12.762 22.974l-0.114 0.066c-5.632 3.371-8.96 3.413-437.461 3.712-260.523 0.171-433.963-0.384-437.205-1.323zM77.355 217.429c-7.509-2.176-15.488-10.624-17.664-18.688-0.498-1.936-0.785-4.158-0.785-6.447 0-12.222 8.158-22.54 19.325-25.804l0.19-0.048c4.395-1.195 145.152-1.621 437.205-1.323 427.307 0.427 430.763 0.469 436.395 3.84 7.777 4.842 12.877 13.346 12.877 23.040s-5.1 18.198-12.762 22.974l-0.114 0.066c-5.632 3.371-8.96 3.413-437.461 3.712-260.523 0.171-433.963-0.384-437.205-1.323z" />
<glyph unicode="&#xe91c;" glyph-name="heart-filled" d="M514.411 127.785c-3.7 0-6.474 0.958-10.174 2.841-164.666 105.703-341.322 231.259-341.322 393.612 0 146.3 85.091 215.205 157.267 229.376 65.668 13.213 146.168-12.288 194.263-92.49 47.17 80.235 128.562 105.703 194.263 92.49 73.067-14.171 157.267-83.076 157.267-229.376 0-162.354-176.69-287.876-341.322-393.612-3.7-1.883-6.474-2.841-10.174-2.841z" />
<glyph unicode="&#xe91d;" glyph-name="add" d="M500.011 823.040c-4.526-2.316-8.24-5.647-10.942-9.708l-0.066-0.105c-3.413-5.888-3.456-8.875-3.925-171.904l-0.469-165.931-165.931-0.469c-163.029-0.469-166.016-0.512-171.904-3.925-6.528-3.755-13.653-15.787-13.653-22.997s7.125-19.243 13.653-22.997c5.888-3.413 8.875-3.456 171.904-3.925l165.931-0.469 0.469-165.931c0.469-163.029 0.512-166.016 3.925-171.904 3.755-6.528 15.787-13.653 22.997-13.653s19.243 7.125 22.997 13.653c3.413 5.888 3.456 8.875 3.925 171.904l0.469 165.931 165.931 0.469c163.029 0.469 166.016 0.512 171.904 3.925 6.528 3.755 13.653 15.787 13.653 22.997s-7.125 19.243-13.653 22.997c-5.888 3.413-8.875 3.456-171.904 3.925l-165.931 0.469-0.469 165.931c-0.469 163.029-0.512 166.016-3.925 171.904-3.755 6.528-15.787 13.653-22.997 13.653-4.474-0.614-8.518-1.965-12.18-3.934l0.191 0.094z" />
<glyph unicode="&#xe91e;" glyph-name="trash" d="M390.827 886.784c-29.824-9.643-49.323-28.459-61.056-58.923-1.877-4.864-2.987-15.701-3.669-35.968l-0.981-29.013-85.973-0.384c-97.792-0.384-94.592 0.043-102.272-14.251-6.741-12.672-3.499-25.515 8.832-34.773 4.139-3.072 7.637-3.584 28.459-4.053l23.765-0.555 0.469-298.965 0.427-298.965 4.565-8.619c6.059-11.52 16.683-21.803 28.416-27.605l9.685-4.736h541.013l9.685 4.736c11.733 5.803 22.357 16.085 28.416 27.605l4.565 8.619 0.427 299.093 0.469 299.093h21.461c24.363 0 30.421 1.835 37.675 11.349 3.306 4.164 5.305 9.496 5.305 15.295 0 4.6-1.257 8.907-3.447 12.595l0.063-0.114c-7.68 14.293-4.48 13.867-102.272 14.251l-85.973 0.384-0.981 29.013c-0.683 20.267-1.792 31.104-3.669 35.968-11.861 30.848-32.64 50.517-62.635 59.435-8.149 2.389-22.955 2.731-120.32 2.645-101.675-0.085-111.872-0.341-120.448-3.157zM620.16 835.029c9.088-2.731 20.139-13.781 22.869-22.869 1.152-3.925 2.091-16.469 2.091-28.587v-21.547h-266.24v21.76c0 11.989 0.853 24.704 1.835 28.331 2.261 8.107 13.952 20.181 22.059 22.741 8.917 2.859 207.957 2.987 217.387 0.171zM773.12 417.621c0-224.427-0.469-291.968-2.048-293.547-2.987-2.987-515.157-2.987-518.144 0-1.579 1.579-2.048 69.12-2.048 293.547v291.499h522.24v-291.499zM405.333 568.491c-6.543-3.133-11.609-8.475-14.309-15.041l-0.069-0.191c-1.237-3.243-1.835-47.659-1.835-137.515v-132.736l3.883-7.339c4.571-8.268 13.238-13.773 23.191-13.773 9.415 0 17.679 4.926 22.355 12.342l0.064 0.109c3.328 5.419 3.413 8.832 3.413 141.269 0 153.6 0.896 143.659-13.696 151.381-8.235 4.352-15.445 4.821-22.997 1.493zM595.797 567.125c-14.763-7.893-13.824 2.261-13.824-151.509 0-132.437 0.085-135.851 3.413-141.269 4.736-7.808 12.928-12.373 22.229-12.373 0.325-0.015 0.707-0.024 1.090-0.024 9.71 0 18.127 5.535 22.268 13.621l0.066 0.141 3.883 7.381-0.427 135.253c-0.469 133.547-0.512 135.296-3.968 139.947-9.216 12.288-22.101 15.573-34.731 8.832z" />
<glyph unicode="&#xe91f;" glyph-name="home-size" d="M66.243 584.361v-283.666c0-13.874 11.251-25.122 25.125-25.122h567.324c13.943 0 25.309 11.181 25.532 25.122v283.666c-0.055 6.86-2.826 13.415-7.7 18.233l-283.666 283.666c-9.919 9.676-25.745 9.676-35.664 0l-283.666-283.666c-4.764-4.865-7.394-11.43-7.294-18.233v0zM116.9 574.228l258.135 258.135 258.536-258.135v-248.002h-516.671v248.002zM901.837 326.226h-14.993v516.671h14.993c9.816-1.245 19.461 3.295 24.764 11.647s5.303 19.015 0 27.368c-5.303 8.352-14.948 12.892-24.764 11.647h-81.046c-12.756-1.617-22.317-12.465-22.317-25.328s9.56-23.713 22.317-25.328h15.399v-516.671h-15.399c-12.756-1.617-22.317-12.465-22.317-25.328s9.56-23.713 22.317-25.328h81.046c9.816-1.245 19.461 3.295 24.764 11.647s5.303 19.015 0 27.368c-5.303 8.352-14.948 12.892-24.764 11.647v0zM658.7 164.132c-13.941-0.222-25.124-11.589-25.122-25.532v-14.993h-516.671v14.993c0 14.099-11.433 25.532-25.532 25.532-13.941-0.222-25.122-11.589-25.122-25.532v-81.046c0-13.874 11.248-25.122 25.122-25.122 13.943-0.002 25.309 11.181 25.532 25.122v15.399h516.671v-15.399c0-13.874 11.248-25.122 25.122-25.122 13.943-0.002 25.309 11.181 25.532 25.122v81.046c0 14.099-11.433 25.532-25.532 25.532v0z" />
<glyph unicode="&#xe920;" glyph-name="quotes-close" d="M874.837 166.443c23.95 5.085 42.387 23.938 46.791 47.716l0.057 0.37c2.347 12.459 2.133 262.4-0.213 275.413-3.541 19.115-15.445 34.603-33.621 43.648l-8.064 4.011-260.267 0.939v27.349c0 33.579 2.389 45.739 13.696 69.12 5.324 11.753 12.245 21.815 20.632 30.446l-0.024-0.025c25.387 27.221 52.907 40.277 91.477 43.563 17.621 1.493 22.229 3.669 29.099 13.781 7.424 10.923 3.627 27.605-8.107 35.541-5.675 3.84-6.997 4.011-25.6 3.157-22.897-0.808-44.371-6.052-63.866-14.894l1.060 0.43c-59.987-26.778-102.796-82.407-111.012-148.76l-0.092-0.914c-1.237-10.325-1.877-74.88-1.877-196.352 0-200.491-0.427-192.725 11.093-210.133 7.094-10.003 16.815-17.718 28.163-22.21l0.423-0.148c6.571-2.645 18.987-2.944 135.253-3.2 70.4-0.171 131.157 0.341 134.997 1.152zM410.453 166.4c15.713 2.894 28.934 11.825 37.419 24.25l0.128 0.198c11.435 17.237 11.264 14.549 10.709 166.059l-0.469 136.32-4.523 9.685c-6.101 12.971-16.768 24.192-28.501 29.952l-9.643 4.736-260.267 0.939v27.861c0 22.357 0.683 30.464 3.456 41.344 14.451 57.259 64.566 99.312 124.833 101.37l0.223 0.006c18.048 0 30.208 10.965 30.208 27.264 0 9.301-4.565 17.493-12.373 22.229-11.051 6.741-45.739 3.541-76.075-7.083-60.544-21.163-105.856-73.045-120.405-137.984-3.584-16-3.627-18.517-3.627-208.213 0-184.576 0.128-192.341 3.243-200.533 6.248-16.689 18.996-29.702 35.082-36.161l0.417-0.148c6.699-2.688 18.688-2.944 135.339-3.2 70.4-0.171 131.072 0.341 134.827 1.109zM619.52 352.427v133.163l248.32-0.896 0.427-130.56c0.256-71.808 0.085-131.499-0.341-132.693-0.64-1.664-27.179-2.133-124.629-2.133h-123.776v133.12zM155.733 352.853l-0.427 132.736 248.32-0.896 0.854-265.429-248.32 0.896-0.427 132.693z" />
<glyph unicode="&#xe921;" glyph-name="call" d="M308.907 854.272c-43.388-8.975-80.929-29.809-110.218-58.933l0.010 0.010c-24.665-24.317-43.569-54.413-54.52-88.095l-0.435-1.547c-8.277-26.069-9.813-38.272-9.557-75.947 1.024-159.659 74.069-315.563 197.76-422.229 61.696-53.205 141.355-95.915 218.069-116.949 70.485-19.285 148.608-26.24 195.072-17.28 44.745 8.904 83.457 30.424 113.39 60.654l0.018 0.018c31.582 31.514 53.583 72.617 61.263 118.571l0.177 1.28c4.139 25.643-4.352 48.213-22.955 60.971-10.027 6.869-201.472 88.448-212.523 90.539-20.267 3.84-27.392 0.555-90.411-41.472l-53.632-35.755-9.045 4.437c-50.219 24.619-98.859 71.253-128.427 123.051-4.779 8.405-8.704 16.683-8.704 18.432 0 1.707 14.72 25.515 32.683 52.949s34.432 53.163 36.565 57.173c5.973 11.179 8.107 23.936 5.931 35.712-2.133 11.605-81.408 198.144-89.941 211.669-8.067 11.622-19.975 20.087-33.857 23.593l-0.404 0.087c-12.672 2.987-18.56 2.859-36.309-0.939zM627.2 824.491c-9.474-4.152-15.972-13.447-15.972-24.26 0-4.534 1.143-8.802 3.156-12.53l-0.069 0.14c4.352-8.533 7.253-10.197 32.512-18.816 89.813-30.507 156.373-97.152 186.24-186.368 8.32-24.917 10.069-27.947 19.115-32.555 3.444-1.746 7.508-2.769 11.812-2.769 13.4 0 24.484 9.915 26.316 22.808l0.016 0.141c1.877 14.037-20.736 70.443-41.941 104.619-43.307 69.717-111.488 121.941-192.683 147.499-15.829 4.992-21.035 5.376-28.501 2.091zM333.867 803.371c2.304-1.493 82.56-188.416 82.56-192.256 0-1.493-15.488-26.325-34.432-55.168-34.731-52.992-39.381-61.44-41.515-75.733-3.883-26.027 30.336-83.712 77.056-129.835 25.912-25.944 55.802-47.908 88.678-64.9l1.989-0.935c15.616-7.723 16.896-8.064 30.933-8.064 19.456 0 21.931 1.237 83.499 42.453 27.52 18.432 51.2 33.493 52.608 33.493 3.627 0 190.635-80.256 192-82.432 1.536-2.389 0.043-11.307-4.779-28.16-15.573-54.443-58.624-96.939-114.645-113.109-41.6-11.989-123.179-5.035-194.731 16.597-66.142 20.966-123.524 52.026-173.588 91.886l1.086-0.835c-23.253 18.475-62.293 57.472-80.299 80.213-38.957 48.992-69.985 106.368-89.917 168.705l-1.048 3.796c-21.547 71.211-28.544 153.301-16.64 194.645 9.576 34.322 29.1 63.221 55.235 84.234l0.317 0.246c19.816 15.935 43.668 27.717 69.753 33.614l1.159 0.22c13.739 2.944 12.459 2.816 14.72 1.323zM590.933 699.008c-7.364-4.591-12.228-12.592-12.373-21.739v-0.021c0-15.659 6.144-22.059 28.501-29.781 49.434-16.768 87.638-54.971 104.062-103.245l0.343-1.16c7.723-22.357 14.123-28.501 29.781-28.501 9.168 0.145 17.169 5.009 21.696 12.264l0.064 0.11c5.248 8.363 3.797 21.973-4.608 43.179-22.768 56.731-66.749 100.893-121.877 123.373l-1.473 0.531c-22.187 8.789-35.627 10.283-44.117 4.992z" />
<glyph unicode="&#xe922;" glyph-name="heart" d="M512 130.74c-4.636 0-9.266 0-13.919 4.509l-23.194 13.516c-111.322 63.084-315.407 180.233-315.407 378.491 0 112.642 92.764 202.768 208.715 202.768 55.661 0 106.685-22.525 143.788-54.071 37.095 36.055 88.128 54.071 143.788 54.071 115.958 0 208.715-90.116 208.715-202.768 0-193.749-204.086-310.893-315.407-378.491l-23.194-13.516c-4.636-4.509-9.266-4.509-13.919-4.509zM368.212 671.435c-83.491 0-153.065-67.592-153.065-148.691 0-166.717 185.53-270.349 287.577-328.924l9.266-4.509 9.266 4.509c102.051 58.574 287.577 166.717 287.577 328.924 0 81.105-69.569 148.691-153.065 148.691-46.384 0-92.764-22.525-120.594-58.574-9.266-13.516-32.467-13.516-46.384 0-27.83 36.055-74.213 58.574-120.594 58.574z" />
<glyph unicode="&#xe923;" glyph-name="share" d="M644.476 820.090c6.582-0.917 12.766-3.693 17.825-8l349.243-290.924c7.897-6.634 12.456-16.418 12.456-26.729s-4.559-20.095-12.456-26.729l-349.243-290.923c-10.377-8.534-24.731-10.36-36.916-4.697s-20.039 17.812-20.199 31.243v126.915c-11.397-0.314-13.012 0-31.286-1.455-37.61-3.091-88.668-9.466-146.245-22.182-115.154-25.435-256.177-76.534-369.979-176.009-11.851-10.165-29.013-11.232-42.032-2.612s-18.733 24.831-13.994 39.705c97.886 301.465 392.726 424.371 603.536 481.116v136.371c-0.078 10.067 4.195 19.677 11.722 26.365s17.576 9.803 27.568 8.546zM675.035 710.993v-88.732c0.007-15.925-10.768-29.837-26.193-33.82-171.553-43.413-401.563-131.623-523.864-324.744 97.5 57.647 199.813 91.933 287.398 111.277 61.275 13.534 115.464 19.968 155.704 23.274s63.985 3.374 73.85 2.909c18.574-0.97 33.129-16.319 33.106-34.911v-88.368l260.114 216.374-260.114 216.739z" />
<glyph unicode="&#xe924;" glyph-name="square-feet" d="M851.092 529.15c10.087 10.427 10.087 26.979 0 37.405l-336.22 336.22c-10.287 10.036-26.701 10.036-36.982 0l-336.22-336.22c-5.056-4.907-7.912-11.653-7.912-18.703s2.856-13.796 7.912-18.703c10.456-9.615 26.532-9.615 36.982 0l39.087 39.505v-357.232c0.23-14.459 12.019-26.056 26.48-26.056h504.329c14.39 0 26.056 11.666 26.056 26.056v357.232l39.505-39.505c10.456-9.615 26.532-9.615 36.982 0zM722.064 238.322h-452.217v383.293l226.109 225.685 225.685-225.685 0.419-383.293zM113.086 85.342l23.533 23.533c10.087 10.427 10.087 26.979 0 37.405-10.287 10.036-26.701 10.036-36.982 0l-42.027-42.027c-5.056-4.907-7.912-11.653-7.912-18.703s2.856-13.796 7.912-18.703l42.027-42.027c10.287-10.036 26.701-10.036 36.982 0 10.087 10.427 10.087 26.979 0 37.405l-23.533 23.116zM935.147 104.254l-42.027 42.027c-6.374 7.953-16.746 11.542-26.671 9.233s-17.644-10.12-19.842-20.067c-2.203-9.953 1.506-20.285 9.53-26.565l23.116-23.533-23.116-23.116c-8.403-10.49-7.618-25.613 1.834-35.173s24.566-10.521 35.148-2.232l42.027 42.027c10.087 10.427 10.087 26.979 0 37.405v0zM748.543 112.239h-504.329c-10.18 1.291-20.182-3.417-25.684-12.079s-5.498-19.721 0-28.381c5.498-8.662 15.504-13.367 25.684-12.079h504.329c13.23 1.677 23.147 12.929 23.147 26.265s-9.916 24.588-23.147 26.265v0z" />
<glyph unicode="&#xe925;" glyph-name="bed" d="M988.16 703.322c-2.602 15.069-16.507 25.493-31.701 23.764s-26.401-15.011-25.55-30.28v-203.404h-872.727v17.222c0 16.195-13.129 29.324-29.324 29.324-16.013-0.254-28.858-13.309-28.858-29.324 0-261.12 0-190.371 0-241.105 0-8.844 0-15.36 0-20.48v0-17.687c0-15.938 12.92-28.858 28.858-28.858h64.233v-17.687c0-15.938 12.92-28.858 28.858-28.858 16.015 0 29.069 12.845 29.324 28.858v17.687h686.545v-17.687c0-15.938 12.92-28.858 28.858-28.858 16.015 0 29.069 12.845 29.324 28.858v17.687h63.767c16.015-0.002 29.069 12.845 29.324 28.858 0 261.12 0 376.553 0 426.822-1.586 14.996-1.898 30.1-0.931 45.149v0zM465.455 260.675h-407.273v174.545h407.273v-174.545zM930.909 260.675h-407.273v174.545h407.273v-174.545zM866.676 633.038h-232.727c-16.013-0.254-28.858-13.309-28.858-29.324v-139.636c0-15.938 12.92-28.858 28.858-28.858h232.727c16.015-0.002 29.069 12.845 29.324 28.858v139.636c0 7.777-3.089 15.236-8.589 20.735s-12.958 8.589-20.735 8.589zM837.818 493.402h-174.545v81.455h174.545v-81.455z" />
<glyph unicode="&#xe926;" glyph-name="bath" d="M985.869 411.132c0 16.195-13.129 29.324-29.324 29.324h-855.040v249.949c-2.063 24.168 9.664 47.437 30.318 60.156s46.711 12.719 67.364 0c20.654-12.719 32.381-35.988 30.318-60.156v-46.545c0-15.938 12.92-28.858 28.858-28.858 16.015-0.002 29.069 12.845 29.324 28.858v46.545c2.807 45.451-19.848 88.704-58.808 112.278s-87.787 23.575-126.747 0c-38.96-23.575-61.615-66.827-58.808-112.278v-249.949h-17.687c-14.652-1.857-25.637-14.321-25.637-29.091s10.984-27.234 25.637-29.091h14.895l6.051-14.895c8.818-61.426 36.087-118.724 78.196-164.305l11.636-12.567-38.167-37.702c-9.309-11.618-8.435-28.367 2.032-38.953s27.206-11.649 38.928-2.472l42.822 42.822 11.636-6.982c47.357-29.637 101.928-45.735 157.789-46.545h279.273c55.861 0.811 110.432 16.909 157.789 46.545l11.636 6.982 42.822-42.822c7.058-8.809 18.546-12.784 29.539-10.223s19.54 11.206 21.977 22.227c2.437 11.021-1.668 22.463-10.556 29.421l-37.702 37.702 11.171 12.567c42.109 45.582 69.378 102.88 78.196 164.305l2.327 14.895h14.895c8.258-0.773 16.472 1.879 22.719 7.334s9.981 13.237 10.328 21.524v0zM876.022 361.328c-24.197-116.297-126.507-199.776-245.295-200.145h-279.273c-118.787 0.369-221.098 83.848-245.295 200.145l-4.189 20.945h778.24l-4.189-20.945z" />
<glyph unicode="&#xe927;" glyph-name="arrow-right" d="M561.28 757.845c-10.581-7.168-14.891-22.485-9.301-33.024 1.365-2.517 57.429-59.52 124.629-126.635l122.112-122.027-322.987-0.853c-320.299-0.853-323.029-0.896-328.96-4.309-6.528-3.755-13.653-15.787-13.653-22.997s7.125-19.243 13.653-22.997c5.931-3.413 8.661-3.456 328.96-4.309l322.987-0.853-122.112-122.027c-67.2-67.115-123.264-124.117-124.629-126.635-5.589-10.539-1.28-25.856 9.301-33.024 7.125-4.864 19.797-5.675 27.179-1.749 2.517 1.365 71.168 69.12 152.533 150.613 160.811 161.067 152.021 151.211 149.12 167.381-1.024 5.675-17.749 22.997-149.12 154.581-81.365 81.493-150.016 149.248-152.533 150.613-7.381 3.925-20.053 3.115-27.179-1.749z" />
<glyph unicode="&#xe928;" glyph-name="clock" d="M467.478 908.164c-257.835 0-467.478-209.645-467.478-467.479 0-257.832 209.644-467.478 467.478-467.478s467.478 209.646 467.478 467.478c0 257.834-209.644 467.479-467.478 467.479v0zM467.478 849.729c226.254 0 409.043-182.79 409.043-409.044 0-226.251-182.79-409.043-409.043-409.043s-409.043 182.793-409.043 409.043c0 226.254 182.79 409.044 409.043 409.044v0zM467.478 732.859c-16.137 0-29.217-13.081-29.217-29.217v-262.957c1.183-11.306 5.845-17.548 12.783-24.195l161.152-161.61c11.411-11.408 29.678-11.408 41.087 0 11.411 11.412 11.411 29.678 0 41.088l-156.587 156.586v251.087c0 16.137-13.081 29.217-29.217 29.217z" />
<glyph unicode="&#xe929;" glyph-name="realtor" horiz-adv-x="895" d="M13.895 53.702v-115.157h-13.895v127.7h38.532c8.477 0 15.289-0.573 20.449-1.714 5.154-1.137 9.835-3.023 14.042-5.653 5.681-3.567 10.266-8.391 13.45-14.102l0.101-0.197c3.314-5.963 4.976-12.276 4.976-18.941 0-9.884-3.302-18.389-9.906-25.523-6.601-7.137-14.863-11.022-24.784-11.666l34.69-49.903h-16.755l-42.57 61.569h13.6c9.066 0 16.439 2.367 22.123 7.104 5.681 4.737 8.523 10.816 8.523 18.242 0 4.504-0.871 8.597-2.612 12.279-1.741 3.685-4.32 6.898-7.735 9.651-2.824 2.278-6.224 3.9-10.2 4.866s-11.052 1.447-21.237 1.447h-20.793zM142.532 8.971v44.731h60.312v12.542h-74.501v-127.7h74.501v12.365h-60.312v45.433h60.312v12.628h-60.312zM316.404-9.884l-27.197 64.11-26.808-64.11h54.005zM240.327-61.455h-14.882l55.679 127.7h16.948l55.483-127.7h-15.078l-17.147 40.080h-63.859l-17.144-40.080zM443.070-61.455v12.365h-50.455v115.335h-14.192v-127.7h64.647zM498.194-61.455v115.157h28.675v12.542h-71.447v-12.542h28.678v-115.157h14.094zM555.879 3.008c0-15.553 5.681-28.592 17.049-39.117 11.365-10.522 25.388-15.786 42.076-15.786 16.295 0 30.058 5.319 41.291 15.961 11.233 10.645 16.853 23.739 16.853 39.292 0 14.502-5.785 26.998-17.344 37.496-11.568 10.494-25.493 15.74-41.785 15.74-6.638 0-13.024-1.009-19.168-3.023-6.5-2.164-12.139-5.188-17.141-9.007l0.141 0.103c-6.834-5.145-12.205-11.433-16.111-18.855-3.909-7.426-5.862-15.029-5.862-22.804zM541.095 3.182c0 8.888 1.922 17.368 5.767 25.434 3.842 8.069 9.409 15.289 16.703 21.663 7.030 6.141 14.762 10.758 23.206 13.858s17.589 4.648 27.446 4.648c10.053 0 19.364-1.567 27.939-4.691 8.572-3.13 16.405-7.793 23.503-13.99 7.294-6.374 12.779-13.508 16.458-21.4 3.676-7.892 5.519-16.402 5.519-25.523 0-9.063-1.579-17.38-4.731-24.953-3.155-7.573-7.885-14.456-14.192-20.652-7.291-7.137-15.538-12.515-24.735-16.139-9.198-3.627-19.183-5.439-29.957-5.439-20.63 0-37.94 6.448-51.936 19.339-13.993 12.892-20.989 28.838-20.989 47.843zM733.294 53.702h20.793c10.185 0 17.261-0.481 21.237-1.447 3.973-0.966 7.373-2.588 10.2-4.866 3.415-2.753 5.994-5.966 7.738-9.651 1.738-3.682 2.609-7.775 2.609-12.279 0-7.426-2.842-13.505-8.523-18.242-5.687-4.737-13.058-7.104-22.126-7.104h-13.597l42.57-61.569h16.755l-34.687 49.903c9.918 0.644 18.178 4.528 24.784 11.666 6.601 7.134 9.903 15.639 9.903 25.523 0 6.665-1.662 12.978-4.979 18.941l-0.101 0.197c-3.182 5.712-7.765 10.536-13.447 14.102-4.206 2.631-8.885 4.516-14.045 5.653-5.154 1.141-11.972 1.714-20.446 1.714h-38.532v-127.7h13.895v115.157zM846.915 65.677h5.246c5.969 0 11.034 1.931 11.034 6.923 0 3.541-2.894 7.082-11.034 7.082-2.352 0-3.979-0.159-5.246-0.322v-13.683zM846.915 43.302h-7.239v40.405c3.802 0.481 7.419 0.966 12.846 0.966 6.874 0 11.399-1.288 14.109-3.057 2.716-1.772 4.163-4.51 4.163-8.373 0-5.31-3.979-8.532-8.866-9.82v-0.319c3.983-0.647 6.696-3.866 7.6-9.823 1.085-6.276 2.171-8.692 2.894-9.979h-7.6c-1.082 1.288-2.171 4.991-3.072 10.301-1.088 5.154-3.979 7.082-9.771 7.082h-5.065v-17.383zM854.513 94.974c-17.911 0-32.563-13.683-32.563-30.585 0-17.224 14.652-30.748 32.743-30.748 18.092-0.159 32.563 13.524 32.563 30.588 0 17.062-14.471 30.745-32.563 30.745h-0.181zM854.694 100.61c22.252 0 39.982-16.099 39.982-36.22 0-20.446-17.73-36.38-40.163-36.38-22.252 0-40.341 15.933-40.341 36.38 0 20.121 18.089 36.22 40.341 36.22h0.181zM431.273 230.765v311.912l311.915-311.912h-311.915zM116.994 230.765v632.124h220.589v-632.124h-220.589zM431.352 861.681h70.414c0.224 0.003 0.445 0.021 0.668 0.025 94.981 0.711 151.803-67.967 151.803-151.806s-60.591-151.831-151.803-151.806h-71.082v303.588zM3.501 117.895h803.555v840.64h-803.555v-840.64z" />
<glyph unicode="&#xe92a;" glyph-name="zoning" d="M950.839 831.68h-877.679c-17.754 0-32.2-14.446-32.2-32.2v-113.334c0-17.842 27.6-17.842 27.6 0v113.334c0 2.535 2.063 4.6 4.6 4.6h877.679c2.537 0 4.6-2.065 4.6-4.6v-672.961c0-2.535-2.062-4.6-4.6-4.6h-176.845v28.715h138.797c7.625 0 13.801 6.179 13.801 13.801v144.511c0 17.842-27.601 17.842-27.601 0v-130.712h-124.998v61.229l1.329-0.115c11.457-1.008 25.702-2.259 35.574 7.629 9.859 9.88 8.612 24.144 7.61 35.604-1.081 12.3 0.082 15.667 9.535 23.527 24.343 20.238 24.795 41.91 0 62.523-9.454 7.862-10.611 11.227-9.535 23.529 2.701 30.87-11.719 45.998-43.188 43.231-12.282-1.077-15.614 0.090-23.443 9.546-20.21 24.398-41.896 24.848-62.48 0-7.832-9.454-11.162-10.627-23.443-9.546-30.892 2.716-45.945-11.784-43.188-43.231 1.075-12.304-0.082-15.667-9.535-23.529-24.343-20.238-24.793-41.914 0-62.523 9.454-7.864 10.611-11.229 9.535-23.532-2.898-33.063 12.892-45.847 44.509-43.117v-61.231h-542.264v569.537h773.983v-365.22c0-17.844 27.601-17.844 27.601 0v379.019c0 7.621-6.177 13.8-13.801 13.8h-801.582c-7.623 0-13.8-6.179-13.8-13.8v-597.131c0-7.623 6.177-13.801 13.8-13.801h556.064v-28.715h-594.113c-2.537 0-4.6 2.064-4.6 4.6v489.708c0 17.842-27.6 17.842-27.6 0v-489.708c0-17.754 14.446-32.199 32.2-32.199h594.113v-62.468c1.966-11.342 8.507-15.514 19.62-12.511l33.741 15.692 33.741-15.692c8.348-3.883 19.62 2.253 19.62 12.511v62.468h176.845c17.754 0 32.201 14.445 32.201 32.199v672.961c0 17.756-14.447 32.2-32.201 32.2zM663.521 266.84c-13.814-1.217-14.483-0.477-13.277 13.33 1.855 21.191-3.019 33.556-19.386 47.161-11.198 9.312-11.196 10.762 0 20.074 16.368 13.605 21.244 25.971 19.386 47.159-1.206 13.81-0.537 14.543 13.277 13.332 21.193-1.866 33.542 3.043 47.116 19.433 9.275 11.194 10.693 11.194 19.968 0 13.578-16.39 25.924-21.293 47.116-19.433 13.816 1.217 14.483 0.477 13.277-13.33-1.855-21.191 3.019-33.554 19.386-47.159 11.196-9.312 11.201-10.766-0.002-20.077-16.368-13.607-21.244-25.967-19.386-47.157 1.212-13.808 0.539-14.549-13.273-13.335h-0.004c-8.667 0.762-18.5 1.624-27.152-1.97-8.378-3.48-14.268-10.586-19.964-17.463l-0.006-0.008c-2.685-3.242-7.574-9.142-9.978-10.199-2.404 1.057-7.293 6.959-9.978 10.199l-0.012 0.016c-5.693 6.871-11.579 13.978-19.956 17.455-8.931 2.724-17.983 3.381-27.152 1.97zM694.87 53.49v169.923c6.55-7.201 14.629-13.885 25.76-13.885 11.133 0 19.212 6.683 25.76 13.883v-169.921l-19.939 9.275c-3.69 1.716-7.948 1.716-11.641 0l-19.939-9.275zM219.922 632.25h475.728c17.842 0 17.842 27.599 0 27.599h-475.728c-17.844 0-17.844-27.599 0-27.599zM817.875 562.104c0 7.623-6.179 13.801-13.801 13.801h-584.151c-17.843 0-17.843-27.601 0-27.601h584.153c7.621 0 13.799 6.179 13.799 13.799zM565.61 478.169c0 7.623-6.177 13.801-13.801 13.801h-331.887c-17.843 0-17.843-27.601 0-27.601h331.887c7.623 0 13.801 6.179 13.801 13.799zM384.379 285.813c-7.522-0.012-15.049-0.023-22.573-0.029-14.475-0.010-22.444 3.848-25.401 19.198-2.699 14.010-22.909 12.227-26.614 0-1.638-5.415-9.918-20.918-17.152-19.651-3.832 0.672-5.507 6.584-6.924 9.646-2.757 5.96-4.768 12.276-6.488 18.606-7.264 26.743-8.714 54.665-13.259 81.912-2.634 15.8-26.718 11.332-27.107-3.67-1.235-47.786-9.048-94.917-26.061-139.708-6.314-16.622 20.357-23.808 26.614-7.338 6.56 17.271 11.768 34.955 15.806 52.902 2.169-6.539 4.753-12.954 7.909-19.194 8.059-15.927 24.496-25.348 42.082-18.264 6.277 2.527 12.003 6.947 16.878 12.325 13.056-15.057 32.481-14.373 50.602-14.352 27.32 0.035 54.639 0.1 81.959 0.176 17.756 0.049 17.791 27.648 0 27.599-23.423-0.066-46.848-0.119-70.271-0.158zM774.523 337.373c0-29.721-24.181-53.899-53.901-53.899-29.723 0-53.901 24.181-53.901 53.899 0 29.721 24.181 53.901 53.901 53.901s53.901-24.179 53.901-53.901zM746.924 337.375c0 14.5-11.801 26.3-26.302 26.3-14.504 0-26.302-11.799-26.302-26.3 0-14.504 11.799-26.302 26.302-26.302 14.502 0 26.302 11.801 26.302 26.302z" />
<glyph unicode="&#xe92b;" glyph-name="bode-pin" d="M896.234 544.641c4.995 146.686-70.41 284.419-196.677 359.242s-283.29 74.823-409.556 0c-126.266-74.823-201.672-212.556-196.677-359.242 0-337.92 372.364-572.975 385.862-583.215 9.478-5.585 21.242-5.585 30.72 0 15.825 8.844 386.327 245.295 386.327 583.215zM504.786 28.452l-10.24-7.447-10.24 7.447c-78.196 55.855-332.8 257.396-332.8 516.189-4.628 125.654 59.769 243.796 167.883 307.997s242.666 64.201 350.78 0c108.114-64.201 172.51-182.343 167.883-307.997 0-257.862-255.069-460.335-333.265-516.189zM647.215 392.437c-8.085-19.646-19.945-37.516-34.909-52.596-15.273-15.282-33.481-27.315-53.527-35.375-42.471-16.752-89.718-16.752-132.189 0-19.961 7.962-38.035 20.011-53.062 35.375-15.251 15.036-27.425 32.902-35.84 52.596-8.641 20.962-13.070 43.421-13.033 66.095-0.037 22.824 4.39 45.435 13.033 66.56 16.863 40.015 48.799 71.784 88.902 88.436 42.471 16.752 89.718 16.752 132.189 0 19.954-8.234 38.13-20.245 53.527-35.375 15.073-15.171 26.944-33.215 34.909-53.062 8.495-21.153 12.765-43.766 12.567-66.56 0.197-22.643-4.074-45.103-12.567-66.095v0zM587.637 503.681c-4.959 13.328-12.558 25.519-22.342 35.84-9.065 10.122-20.169 18.211-32.582 23.738-12.804 6.022-26.812 9.047-40.96 8.844-14.148 0.203-28.156-2.821-40.96-8.844-12.762-5.386-24.197-13.487-33.513-23.738-9.467-10.562-17.027-22.689-22.342-35.84-10.56-29.173-10.56-61.125 0-90.298 5.211-13.064 12.785-25.055 22.342-35.375 9.572-9.958 20.943-18.012 33.513-23.738 12.915-5.632 26.87-8.486 40.96-8.378 14.094-0.151 28.057 2.706 40.96 8.378 12.221 5.853 23.264 13.899 32.582 23.738 9.868 10.077 17.483 22.134 22.342 35.375 11.187 29.060 11.187 61.238 0 90.298v0zM395.959 714.842l190.835 0.799 0.195-46.545-190.835-0.799-0.195 46.545z" />
<glyph unicode="&#xe92c;" glyph-name="chat" d="M351.092 873.319c-63.45-5.759-120.628-28.689-167.98-64.052l0.866 0.62c-21.558-17.161-40.691-35.522-58.015-55.495l-0.452-0.534c-28.192-34.919-49.812-76.429-62.215-121.749l-0.551-2.366c-9.974-39.717-10.151-42.865-9.574-214.543 0.487-157.671 0.487-157.805 4.301-164.896 5.186-9.619 15.426-19.503 25.266-24.336l8.157-4.035 252.532-0.975 8.955-17.865c15.495-31.621 35.045-58.678 58.409-81.902l0.014-0.014c56.782-58.512 128.105-92.024 210.065-98.627 31.295-2.526 293.045-2.481 307.054 0.045 18.75 3.413 30.897 13.032 39.23 31.205l4.211 9.176-0.577 164.587-0.621 164.587-4.743 21.41c-29.92 135.108-134.133 235.376-267.203 257.097-7.175 1.029-12.979 2.115-18.704 3.405l1.594-0.303c-0.132 0.177-4.433 8.689-9.529 18.929-15.812 32.431-35.891 60.162-59.941 83.877l-0.035 0.035c-56.518 57.493-127.175 90.339-208.469 96.855-25.045 2.039-25.753 2.039-52.041-0.132zM432.212 814.098c55.32-12.279 98.672-35.727 137.547-74.381 38.591-37.686 65.796-86.871 76.076-142.012l0.256-1.653c4.522-24.157 4.522-74.736 0-97.476-23.759-119.727-119.107-207.761-239.055-220.705-10.551-1.153-72.165-1.862-158.335-1.862h-141.094l0.532 153.815c0.577 150.313 0.664 154.213 4.433 170.659 7.801 34.221 17.641 59.753 32.801 85.108 41.162 68.191 109.41 116.484 189.471 130.136l1.623 0.229c20.346 3.369 77.217 2.26 95.746-1.862zM744.805 600.617c63.024-25.705 113.163-72.2 142.899-130.797l0.719-1.563c9.026-18.8 16.874-40.833 22.401-63.768l0.473-2.324c3.811-16.756 3.901-20.125 4.522-171.014l0.621-153.86-155.677 0.621c-153.239 0.621-155.943 0.664-171.635 4.522-67.067 16.356-119.905 49.691-159.001 100.268-11.259 14.539-25.798 37.9-24.291 39.009 0.355 0.266 8.333 1.375 17.686 2.526 51.33 6.205 108.867 29.92 152.53 62.811 62.839 48.272 107.502 117.475 123.623 197.037l0.36 2.124c5.407 27.173 6.737 77.528 2.792 104.567-0.848 4.747-1.864 12.127-2.698 19.562l-0.183 2.025c0 2.615 25.577-4.077 44.859-11.747z" />
<glyph unicode="&#xe92d;" glyph-name="arrow-left" d="M432.469 757.077c-3.669-2.731-72.064-70.485-152.021-150.613-129.067-129.28-145.536-146.389-146.56-152.064-2.901-16.171-11.435-6.571 146.56-164.864 79.957-80.128 148.352-147.883 152.021-150.613 4.321-3.263 9.782-5.227 15.701-5.227 9.963 0 18.627 5.562 23.057 13.749l0.069 0.139c3.755 7.125 4.096 17.237 0.725 23.595-1.365 2.517-57.429 59.52-124.629 126.635l-122.112 122.027 322.987 0.853c320.299 0.853 323.029 0.896 328.96 4.309 6.528 3.755 13.653 15.787 13.653 22.997s-7.125 19.243-13.653 22.997c-5.931 3.413-8.661 3.456-328.96 4.309l-322.987 0.853 122.112 122.027c67.2 67.115 123.264 124.117 124.629 126.635 3.371 6.357 3.029 16.469-0.725 23.595-4.498 8.326-13.162 13.888-23.125 13.888-5.92 0-11.381-1.963-15.768-5.275l0.066 0.048z" />
<glyph unicode="&#xe92e;" glyph-name="arrow-up" d="M500.907 824.405c-5.077-2.304-294.784-291.456-300.16-299.563-4.309-6.571-3.627-20.139 1.408-27.563 7.168-10.581 22.485-14.891 33.024-9.301 2.517 1.365 59.52 57.429 126.635 124.629l122.027 122.112 0.853-322.987c0.853-320.299 0.896-323.029 4.309-328.96 3.755-6.528 15.787-13.653 22.997-13.653s19.243 7.125 22.997 13.653c3.413 5.931 3.456 8.661 4.309 328.96l0.853 322.987 122.027-122.112c67.115-67.2 124.117-123.264 126.635-124.629 6.101-3.243 15.701-3.072 22.955 0.384 14.336 6.784 18.944 26.197 9.301 39.168-8.832 11.904-294.4 295.723-299.392 297.557-2.834 1.041-6.107 1.642-9.521 1.642-4.070 0-7.94-0.856-11.44-2.397l0.182 0.072z" />
<glyph unicode="&#xe92f;" glyph-name="arrow-down" d="M500.011 823.040c-4.526-2.316-8.24-5.647-10.942-9.708l-0.066-0.105c-3.413-5.931-3.456-8.661-4.309-328.96l-0.853-322.987-122.027 122.112c-67.115 67.2-124.117 123.264-126.635 124.629-6.101 3.243-15.701 3.072-22.955-0.384-14.336-6.784-18.944-26.197-9.301-39.168 2.731-3.669 70.485-72.064 150.613-152.021 129.28-129.067 146.389-145.536 152.064-146.56 16.171-2.901 6.571-11.435 164.864 146.56 80.128 79.957 147.883 148.352 150.613 152.021 9.643 12.971 5.035 32.384-9.301 39.168-7.253 3.456-16.853 3.627-22.955 0.384-2.517-1.365-59.52-57.429-126.635-124.629l-122.027-122.112-0.853 322.987c-0.853 320.299-0.896 323.029-4.309 328.96-3.755 6.528-15.787 13.653-22.997 13.653-4.474-0.614-8.518-1.965-12.18-3.934l0.191 0.094z" />
<glyph unicode="&#xe930;" glyph-name="search" d="M437.76 857.557c-112.085-8.021-213.12-67.243-276.437-162.048-28.153-42.274-48.068-92.458-56.198-146.501l-0.25-2.022c-3.925-26.112-3.925-75.776-0.043-101.547 6.187-40.704 17.365-76.288 35.157-111.787 55.296-110.421 161.109-183.808 285.696-198.187 26.24-3.029 78.72-0.939 105.131 4.181 60.915 11.757 114.508 37.234 159.401 73.136l-0.724-0.56 11.093 8.661 90.453-90.24c80-79.829 91.307-90.496 97.707-92.16 2.114-0.602 4.542-0.949 7.050-0.949 14.728 0 26.667 11.939 26.667 26.667 0 2.509-0.346 4.936-0.994 7.238l0.045-0.188c-1.664 6.4-12.331 17.707-92.075 97.707l-90.197 90.453 13.227 17.451c33.745 44.089 57.906 97.294 68.361 155.264l0.332 2.218c4.48 25.131 6.059 72.789 3.285 99.243-15.744 150.869-124.757 276.907-271.403 313.771-27.272 6.978-58.58 10.983-90.824 10.983-8.606 0-17.146-0.285-25.611-0.847l1.149 0.061zM522.88 799.701c111.104-22.485 199.893-101.077 234.837-207.872 9.657-28.672 15.229-61.692 15.229-96.013 0-45.186-9.659-88.115-27.025-126.837l0.788 1.964c-24.277-55.125-68.48-105.856-120.448-138.155-100.608-62.507-232.789-60.629-331.861 4.779-70.315 46.421-117.333 116.565-134.315 200.363-3.413 17.024-3.925 24.405-3.883 58.709 0 34.261 0.512 41.643 3.925 58.027 18.688 89.728 70.357 162.261 149.077 209.152 28.501 16.981 73.344 32.683 108.928 38.229 24.704 3.797 80.469 2.56 104.747-2.347z" />
<glyph unicode="&#xe931;" glyph-name="pencil" d="M658.304 843.776c-5.266-1.434-9.802-3.166-14.116-5.282l0.462 0.205c-4.992-2.517-83.072-79.445-254.165-250.496-223.701-223.573-247.424-247.851-251.733-257.109l-4.779-10.24v-206.507l4.48-9.6c6.357-13.483 15.36-22.741 28.501-29.227l11.307-5.547 216.832-0.939 252.757 253.056c283.136 283.477 260.779 258.987 260.779 285.483 0 25.387 4.309 20.011-103.765 128.597-52.651 52.864-98.517 97.92-101.888 100.096-8.955 5.633-19.844 8.974-31.514 8.974-4.664 0-9.204-0.534-13.561-1.544l0.403 0.079zM765.184 700.843c80.469-80.469 91.691-92.331 90.155-95.147-0.981-1.792-21.035-22.443-44.587-45.909l-42.752-42.667-186.88 186.923 44.459 44.331c24.405 24.405 45.141 44.373 46.080 44.373 0.896 0 43.008-41.387 93.525-91.904zM551.68 300.8l-178.816-178.773h-90.752c-80.213 0-91.051 0.299-93.397 2.688-2.389 2.347-2.688 13.184-2.688 93.397v90.752l357.547 357.589 186.88-186.88-178.773-178.773z" />
<glyph unicode="&#xe932;" glyph-name="rotate" d="M898.56 646.229c-6.344-3.377-10.974-9.265-12.597-16.303l-0.032-0.166c-1.237-4.565-1.877-38.315-1.877-101.547v-94.677l-42.24 41.899c-51.755 51.328-61.739 60.544-82.517 76.16-54.734 41.7-121.65 70.211-194.554 79.613l-2.054 0.216c-22.955 2.987-71.168 3.413-94.208 0.853-76.544-8.491-151.637-39.040-210.005-85.461-93.227-74.155-147.627-178.005-156.16-298.069-1.237-17.536-1.195-26.368 0.171-31.445 3.84-14.251 18.731-22.741 32.64-18.603 14.72 4.437 20.139 14.805 20.181 38.571 0 40.832 13.525 96.597 33.707 139.264 45.082 93.393 126.776 163.093 225.954 191.175l2.526 0.611c35.883 9.856 53.077 11.947 96.213 11.819 31.275-0.128 42.069-0.853 58.027-3.755 59.012-10.803 111.22-34.176 155.739-67.305l-0.987 0.702c8.917-6.613 36.693-32.683 67.968-63.744l52.907-52.608-99.499-0.043c-82.091 0-100.309-0.427-104.107-2.389-8.722-4.528-14.577-13.49-14.577-23.821 0-5.674 1.766-10.935 4.779-15.264l-0.058 0.088c2.739-3.359 6.143-6.066 10.022-7.945l0.175-0.076c7.083-3.413 9.643-3.499 139.861-3.499 146.816 0 139.989-0.512 148.949 11.221l4.907 6.443v273.579l-4.267 6.272c-2.547 3.614-5.767 6.576-9.5 8.755l-0.143 0.077c-7.381 3.499-19.115 3.243-25.344-0.597z" />
<glyph unicode="&#xe933;" glyph-name="question-circle" d="M493.227 858.197c-59.873-2.911-115.526-18.254-165.321-43.483l2.334 1.073c-123.221-60.843-206.635-177.493-225.408-315.221-3.456-25.515-3.456-79.616 0-105.131 21.419-157.269 128.469-287.445 276.608-336.341 46.805-15.445 80.896-20.907 130.56-20.949 70.955-0.043 131.029 14.72 192.469 47.232 111.165 60.282 190.54 167.094 212.385 293.605l0.351 2.459c4.523 27.221 6.229 63.787 4.352 92.117-3.883 57.813-16.384 104.576-41.813 156.203-56.408 112.833-160.204 194.814-284.584 220.43l-2.648 0.456c-25.641 4.936-55.132 7.76-85.282 7.76-4.924 0-9.83-0.075-14.718-0.225l0.715 0.017zM558.72 802.133c145.46-19.868 261.891-124.827 298.402-262.337l0.563-2.495c7.765-30.251 11.008-56.533 11.008-89.301 0-58.752-12.373-110.635-38.741-162.56-45.184-88.875-128.939-156.843-224.299-182.016-32-8.448-47.957-10.667-83.541-11.648-38.101-1.024-64.043 1.621-96.64 9.813-125.995 31.659-226.56 130.816-258.773 255.104-9.131 35.328-10.411 46.592-10.411 91.307 0 45.44 1.323 56.491 11.093 93.525 35.712 135.381 151.723 238.464 292.224 259.712 26.496 4.011 72.149 4.437 99.115 0.896zM483.84 663.723c-43.408-9.637-78.605-38.411-96.832-76.805l-0.362-0.848c-7.284-14.372-11.789-31.256-12.368-49.132l-0.005-0.191c-0.768-14.976-0.555-16.64 3.157-22.016 6.613-9.6 12.331-12.843 22.613-12.843 15.787 0 26.624 11.563 26.624 28.459 1.802 41.474 32.554 75.256 72.463 81.725l0.497 0.067c25.472 4.309 53.845-5.291 72.747-24.704 33.408-34.176 33.195-85.376-0.512-119.125-16.128-16.213-36.651-25.429-56.448-25.429-10.411 0-21.973-5.973-26.411-13.653-2.987-5.205-3.456-9.003-3.456-29.013 0-19.968 0.469-23.808 3.413-28.843 4.044-7.633 11.753-12.849 20.719-13.31l0.060-0.002c15.232-1.323 25.259 7.253 28.715 24.491l1.92 9.685 10.112 2.816c49.579 13.653 89.088 58.069 98.219 110.336 2.859 16.427 1.067 46.336-3.627 61.227-14.805 46.891-49.835 81.579-95.829 94.805-16.896 4.907-48.853 6.016-65.408 2.304zM503.595 278.869c-30.464-5.845-41.557-45.867-18.688-67.584 6.801-6.653 16.119-10.758 26.396-10.758 0.245 0 0.49 0.002 0.734 0.007l-0.037-0.001c21.785 0.015 39.44 17.679 39.44 39.467 0 7.309-1.987 14.154-5.45 20.024l0.1-0.184c-5.291 9.259-14.379 16.555-22.571 18.261-10.069 2.048-12.629 2.133-19.925 0.768z" />
<glyph unicode="&#xe934;" glyph-name="minus" d="M151.040 472.747c-8.135-2.871-14.279-9.522-16.388-17.786l-0.038-0.177c-0.57-2.046-0.898-4.395-0.898-6.821 0-12.089 8.135-22.277 19.229-25.39l0.186-0.044c4.907-1.323 109.867-1.749 362.539-1.408 353.408 0.427 355.627 0.427 361.557 3.883 6.528 3.755 13.653 15.787 13.653 22.997s-7.125 19.243-13.653 22.997c-5.931 3.456-8.064 3.456-362.667 3.797-304.427 0.341-357.675 0.043-363.52-2.048z" />
<glyph unicode="&#xe935;" glyph-name="close" d="M210.347 758.613c-10.837-6.613-15.317-20.864-10.581-33.579 0.981-2.688 61.781-64.853 137.813-140.928l135.979-136.107-135.979-136.107c-76.032-76.075-136.832-138.24-137.813-140.928-1.33-3.077-2.103-6.66-2.103-10.423 0-14.845 12.035-26.88 26.88-26.88 3.763 0 7.346 0.773 10.598 2.17l-0.175-0.067c2.688 0.981 64.853 61.781 140.928 137.813l136.107 135.979 136.107-135.979c76.075-76.032 138.24-136.832 140.928-137.813 3.077-1.33 6.66-2.103 10.423-2.103 14.845 0 26.88 12.035 26.88 26.88 0 3.763-0.773 7.346-2.17 10.598l0.067-0.175c-0.981 2.688-61.781 64.853-137.813 140.928l-135.979 136.107 135.979 136.107c76.032 76.075 136.832 138.24 137.813 140.928 1.33 3.077 2.103 6.66 2.103 10.423 0 14.845-12.035 26.88-26.88 26.88-3.763 0-7.346-0.773-10.598-2.17l0.175 0.067c-2.688-0.981-64.853-61.781-140.928-137.813l-136.107-135.979-136.107 135.979c-76.075 76.032-138.24 136.832-140.928 137.813-7.595 2.816-18.517 2.133-24.619-1.621z" />
<glyph unicode="&#xe936;" glyph-name="percent" d="M283.307 793.259c-54.133-9.037-97.302-47.886-112.47-98.8l-0.255-0.997c-2.979-11.431-4.689-24.554-4.689-38.076 0-8.534 0.681-16.909 1.992-25.073l-0.119 0.898c5.291-27.776 17.195-50.773 36.864-71.168 19.413-20.096 41.045-32.427 68.267-38.912 12.117-2.901 18.389-3.371 36.011-2.688 24.704 0.981 36.395 3.712 55.808 13.227 27.795 13.885 49.784 35.915 63.251 62.936l0.365 0.808c9.557 19.712 12.288 31.232 13.227 55.68 1.237 32.213-5.248 55.851-22.4 81.664-25.205 37.297-67.335 61.493-115.116 61.493-0.6 0-1.198-0.004-1.796-0.011l0.091 0.001c-8.107-0.128-16.683-0.555-19.029-0.981zM788.48 760.149c-5.803-2.304-584.747-581.291-587.947-588.032-1.675-3.442-2.654-7.487-2.654-11.762 0-9.579 4.916-18.009 12.364-22.905l0.103-0.064c6.101-3.755 17.024-4.437 24.619-1.621 6.144 2.261 585.045 580.821 588.501 588.117 1.675 3.442 2.654 7.487 2.654 11.762 0 9.579-4.916 18.009-12.364 22.905l-0.103 0.064c-6.016 3.669-17.835 4.395-25.173 1.536zM331.819 736.512c33.512-11.971 57.1-43.354 57.301-80.274v-0.025c0-22.571-8.064-42.283-24.192-59.051-50.731-52.821-139.136-21.248-145.835 52.096-3.072 33.792 16.725 68.309 47.573 82.987 6.912 3.285 15.957 6.656 20.139 7.552 11.179 2.347 33.408 0.725 45.013-3.285zM689.621 375.296c-26.532-6.349-49.374-19.53-67.321-37.583l-0.007-0.007c-27.008-27.051-40.32-59.563-40.32-98.475-0.001-0.232-0.002-0.506-0.002-0.78 0-53.034 30.475-98.949 74.869-121.19l0.782-0.355c24.576-12.075 34.816-14.464 62.592-14.464 18.816 0 25.472 0.683 36.352 3.84 59.187 16.796 101.815 70.357 101.815 133.875 0 26.521-7.432 51.306-20.326 72.387l0.346-0.608c-12.245 20.907-37.973 43.819-60.885 54.229-24.96 11.307-60.885 15.019-87.893 9.131zM741.504 322.517c63.232-16.469 84.864-96.341 38.571-142.592-15.351-15.437-36.605-24.991-60.090-24.991-24.708 0-46.947 10.575-62.436 27.447l-0.056 0.062c-14.083 14.963-22.737 35.174-22.737 57.407 0 24.058 10.133 45.749 26.364 61.039l0.042 0.040c15.209 15.014 36.116 24.287 59.189 24.287 7.517 0 14.805-0.984 21.741-2.831l-0.589 0.133z" />
<glyph unicode="&#xe937;" glyph-name="home-inspection" d="M928 291.584c-0.223 13.45-11.178 24.273-24.667 24.273-0.001 0-0.003 0-0.004 0h-210.255v264.287h210.255c13.623 0 24.671 11.048 24.671 24.671v0 117.457c-0.226 78.328-63.773 141.729-142.127 141.729 0 0 0 0-0.001 0h-548.143c-78.183-0.225-141.516-63.546-141.729-141.715v-548.158c0 0 0 0 0-0.001 0-78.354 63.413-141.901 141.715-142.127h548.158c78.401 0.225 141.902 63.727 142.127 142.101v0.027zM693.087 722.271c3.262 48.803 43.653 87.146 92.991 87.146s89.727-38.351 92.972-86.867l0.019-0.287v-93.184h-185.979zM664.111 102.865l12.528-21.921h-438.906c-51.299 0.226-92.795 41.856-92.795 93.183 0 0 0 0.001 0 0.001v0 548.143c0.224 51.156 41.63 92.574 92.772 92.795h438.924l-12.528-21.921c-12.389-20.217-19.787-44.658-19.968-70.816v-548.192c0.127-26.339 7.532-50.928 20.312-71.873l-0.344 0.611zM879.057 174.127c0.129-1.802 0.193-3.916 0.193-6.038 0-51.46-41.724-93.184-93.184-93.184s-93.184 41.724-93.184 93.184c0 2.122 0.075 4.236 0.212 6.319l-0.019-0.287v92.795h185.979zM494.576 156.511c4.39-4.346 10.427-7.043 17.090-7.043 3.446 0 6.722 0.714 9.69 2.006l-0.157-0.063c9.016 3.557 15.27 12.188 15.27 22.283 0 0.151-0.002 0.301-0.005 0.451v-0.027 75.953l4.703 4.305c21.187 18.609 34.482 45.755 34.482 76.004 0 0.807-0.012 1.614-0.027 2.419l0.003-0.123c-3.443 54.071-48.136 96.628-102.779 96.628s-99.339-42.557-102.763-96.331l-0.019-0.297c-0.020-0.686-0.027-1.486-0.027-2.3 0-30.249 13.295-57.395 34.366-75.908l0.116-0.096 4.703-4.305v-75.953c-0.003-0.131-0.005-0.284-0.005-0.435 0-10.095 6.267-18.726 15.107-22.225l0.163-0.057c2.811-1.228 6.088-1.951 9.534-1.951 6.671 0 12.713 2.685 17.092 7.045l-0.002-0.002 21.536 21.921zM419.009 330.736c0.001 29.838 24.194 54.030 54.032 54.030s54.032-24.193 54.032-54.032c0-29.839-24.193-54.032-54.032-54.032-0.133 0-0.279 0.001-0.412 0.002h0.027c-29.667 0.225-53.639 24.325-53.639 54.030 0 0.001 0 0.001 0 0.002v0zM394.349 707.391h-156.609c-12.224-1.589-21.561-11.937-21.561-24.467s9.338-22.876 21.444-24.461l0.129-0.016h156.609c0.93-0.129 2.004-0.193 3.097-0.193 13.623 0 24.671 11.048 24.671 24.671s-11.048 24.671-24.671 24.671c-1.094 0-2.167-0.076-3.226-0.209l0.129 0.016zM511.807 589.935h-274.066c-12.224-1.589-21.561-11.937-21.561-24.467s9.338-22.876 21.444-24.461l0.129-0.016h274.066c0.93-0.129 2.004-0.193 3.097-0.193 13.623 0 24.671 11.048 24.671 24.671s-11.048 24.671-24.671 24.671c-1.094 0-2.167-0.076-3.226-0.209l0.129 0.016z" />
<glyph unicode="&#xe938;" glyph-name="furniture" horiz-adv-x="1289" d="M1125.325 382.829h-415.475c-12.464 0.083-22.526 10.211-22.526 22.677 0 1.784 0.209 3.526 0.597 5.193l-0.026-0.154 72.009 307.476c2.508 9.976 11.376 17.249 21.961 17.277h271.476c10.577-0.028 19.458-7.309 21.926-17.126l0.029-0.158 72.009-307.476c0.363-1.519 0.572-3.255 0.572-5.039 0-12.476-10.073-22.594-22.526-22.677h-0.011zM738.28 427.835h360.032l-63.008 262.471h-235.826zM917.577 150.25c-0.001 0-0.002 0-0.004 0-12.401 0-22.476 9.951-22.676 22.304v232.965c1.47 11.237 10.976 19.826 22.503 19.826s21.033-8.588 22.487-19.72l0.016-0.118v-232.941c0-12.326-9.992-22.326-22.326-22.326v0zM1077.075 247.463c-12.526 0-22.677 10.157-22.677 22.677v0 132.129c1.47 11.237 10.976 19.826 22.503 19.826s21.033-8.588 22.487-19.72l0.016-0.118v-132.129c0-0.001 0-0.002 0-0.004 0-12.401-9.951-22.476-22.304-22.676h-0.024zM1019.827 48h-204.501c-0.001 0-0.002 0-0.004 0-12.401 0-22.476 9.951-22.676 22.304v0.024c-0.119 2.004-0.176 4.345-0.176 6.706 0 68.998 55.93 124.928 124.928 124.928s124.928-55.93 124.928-124.928c0-2.361-0.070-4.702-0.193-7.026l0.018 0.326c0-12.326-9.992-22.326-22.326-22.326v0zM839.818 93.006h153.020c-10.249 33.136-40.62 56.796-76.51 56.796s-66.261-23.66-76.358-56.226l-0.152-0.571zM1077.075 230.174c-22.076 0-39.968 17.89-39.968 39.968s17.89 39.968 39.968 39.968c22.076 0 39.968-17.89 39.968-39.968v0c-0.202-21.987-17.976-39.766-39.943-39.968h-0.026zM1077.075 275.178c-2.779 0-5.038-2.259-5.038-5.038v0c0-5.401 9.726-5.401 9.726 0 0.011 0.11 0.018 0.229 0.018 0.363 0 2.581-2.094 4.676-4.676 4.676-0.006 0-0.012 0-0.019 0h0.001zM541.343 375.991h-324.027c-12.526 0-22.677 10.157-22.677 22.677v0 318.99c0.206 72.026 58.636 130.328 130.69 130.328 0 0 0 0 0.001 0h108.014c71.898-0.205 130.126-58.43 130.328-130.317v-319.015c0-0.001 0-0.002 0-0.004 0-12.401-9.951-22.476-22.304-22.676h-0.024zM239.63 420.997h279.026v296.676c-0.205 47.042-38.281 85.126-85.311 85.326h-108.026c0 0-0.001 0-0.001 0-47.197 0-85.479-38.162-85.684-85.312v-0.026zM594.987 210.021h-431.678c-12.376 0.203-22.326 10.276-22.326 22.676 0 0.001 0 0.003 0 0.004v0 53.281c0 74.57 60.447 135.017 135.017 135.017v0h206.301c74.57 0 135.017-60.447 135.017-135.017v0-53.281c0-0.001 0-0.002 0-0.004 0-12.401-9.951-22.476-22.304-22.676h-0.024zM185.986 255.024h387.036v30.967c0 49.714-40.298 90.012-90.012 90.012v0h-207.026c-49.714 0-90.012-40.298-90.012-90.012v0zM217.315 48c-0.001 0-0.002 0-0.004 0-12.401 0-22.476 9.951-22.676 22.304v162.394c1.47 11.237 10.976 19.826 22.503 19.826s21.033-8.588 22.487-19.72l0.016-0.118v-162.376c0-12.326-9.992-22.326-22.326-22.326v0zM541.343 48c-0.001 0-0.002 0-0.004 0-12.401 0-22.476 9.951-22.676 22.304v162.394c1.47 11.237 10.976 19.826 22.503 19.826s21.033-8.588 22.487-19.72l0.016-0.118v-162.376c0-12.326-9.992-22.326-22.326-22.326v0z" />
<glyph unicode="&#xe939;" glyph-name="camera" d="M372.565 823.552c-6.443-2.944-10.112-7.637-36.693-47.616l-29.525-44.331-64.853-0.683c-56.107-0.64-66.133-1.109-74.24-3.755-30.25-9.361-53.529-32.881-62.381-62.615l-0.169-0.66c-2.987-9.728-3.157-22.059-3.157-249.173v-238.933l4.437-12.117c8.405-22.997 23.424-40.661 43.733-51.499 21.077-11.221-1.536-10.581 362.283-10.581s341.205-0.64 362.283 10.581c20.397 11.159 35.877 29.157 43.533 50.848l0.2 0.651 4.437 12.117v238.933c0 227.115-0.171 239.445-3.157 249.173-8.956 30.43-32.263 53.977-61.891 63.1l-0.658 0.174c-8.107 2.645-18.133 3.115-74.24 3.755l-64.853 0.683-29.525 44.331c-26.581 39.979-30.251 44.672-36.693 47.616-6.869 3.115-12.971 3.243-139.435 3.243s-132.565-0.128-139.435-3.243zM655.36 729.131c22.485-33.621 31.36-45.568 35.84-48.128 5.675-3.285 9.771-3.499 79.36-4.309 80.256-0.939 78.208-0.683 88.107-11.349 10.837-11.691 10.112 7.637 9.6-251.264l-0.427-235.435-5.205-7.424c-3.524-4.637-7.768-8.514-12.603-11.533l-0.197-0.115-7.595-4.267h-660.48l-8.149 4.779c-5.041 3.18-9.287 7.113-12.712 11.696l-0.088 0.123-4.651 7.040-0.427 235.264c-0.512 258.731-1.237 239.445 9.6 251.136 9.899 10.667 7.851 10.411 88.107 11.349 69.589 0.811 73.685 1.024 79.36 4.309 4.48 2.56 13.355 14.507 35.84 48.128l29.867 44.715h226.987l29.867-44.715zM491.691 601.387c-57.566-7.467-105.611-42.394-131.132-91.001l-0.452-0.946c-33.92-67.456-20.309-148.395 33.579-199.765 22.059-20.992 46.72-34.987 75.648-42.88 12.629-3.456 18.261-3.968 43.52-3.84 33.195 0.128 45.099 2.517 69.931 14.165 18.442 8.346 34.207 19.317 47.624 32.648l-0.008-0.008c32.085 30.969 52.008 74.356 52.008 122.396 0 18.134-2.839 35.605-8.096 51.992l0.334-1.204c-20.536 64.136-76.297 111.133-143.963 118.546l-0.762 0.068c-17.195 1.92-20.309 1.92-38.229-0.171zM539.307 546.048c6.101-1.451 17.536-5.717 25.429-9.557 11.477-5.547 17.365-9.899 29.227-21.675 12.715-12.629 16.043-17.109 22.613-30.976 4.267-8.917 8.747-20.437 9.941-25.6 3.157-13.269 2.773-41.173-0.683-54.613-13.646-51.131-59.344-88.255-113.784-88.704h-0.051c-18.603 0-34.517 3.925-52.864 12.971-30.034 15.305-52.232 42.346-60.747 74.919l-0.181 0.814c-3.499 13.44-3.883 41.344-0.725 54.613 1.195 5.163 5.675 16.683 9.941 25.6 6.571 13.867 9.899 18.347 22.613 30.976 23.68 23.509 47.701 33.493 81.109 33.707 0.518 0.007 1.129 0.011 1.741 0.011 9.343 0 18.475-0.905 27.313-2.631l-0.895 0.146z" />
<glyph unicode="&#xe93a;" glyph-name="renovations" d="M529.759 864.822c-4.585 4.443-10.852 7.182-17.759 7.182s-13.171-2.736-17.767-7.187l-399.055-399.055c-4.443-4.585-7.182-10.852-7.182-17.759s2.736-13.171 7.187-17.767l-0.008 0.008c4.665-4.267 10.904-6.886 17.759-6.886s13.093 2.621 17.782 6.908l-0.024-0.022 77.020 77.414v-458.522c0-0.001 0-0.002 0-0.004 0-13.748 11.031-24.914 24.725-25.14h558.706c13.885 0 25.145 11.26 25.145 25.145v0 458.522l77.020-77.414c4.665-4.267 10.904-6.886 17.759-6.886s13.093 2.621 17.782 6.908l-0.024-0.022c4.443 4.585 7.182 10.852 7.182 17.759s-2.736 13.171-7.187 17.767l0.008-0.008zM766.4 73.884h-508.8v483.658l254.203 254.203 254.597-254.203zM671.424 472.937h-94.58v15.166c-0.227 13.709-11.393 24.74-25.141 24.74-0.001 0-0.003 0-0.004 0h-199.526c-13.662 0-24.74-11.077-24.74-24.74v0-79.81c0-0.001 0-0.002 0-0.004 0-13.748 11.031-24.914 24.725-25.14h199.551c13.885 0 25.145 11.26 25.145 25.145v0 14.761h69.831v-109.738h-174.786c-13.662 0-24.74-11.077-24.74-24.74v0-119.716c-0.131-0.948-0.197-2.043-0.197-3.157 0-13.885 11.26-25.145 25.145-25.145s25.145 11.26 25.145 25.145c0 1.115-0.077 2.209-0.213 3.288l0.016-0.131v94.58h174.393c13.885 0 25.145 11.26 25.145 25.145v0 159.621c-0.227 13.709-11.393 24.74-25.141 24.74-0.001 0-0.003 0-0.004 0v0z" />
<glyph unicode="&#xe93b;" glyph-name="measurements" horiz-adv-x="1189" d="M483.172 712.674c-0.138 0-0.3 0.001-0.462 0.001-123.136 0-222.951-99.82-222.951-222.951s99.82-222.951 222.951-222.951c123.136 0 222.945 99.82 222.951 222.945v0c-0.256 122.874-99.658 222.438-222.452 222.945h-0.048zM483.172 322.853c-0.138 0-0.3-0.001-0.462-0.001-92.417 0-167.323 74.919-167.323 167.323s74.919 167.323 167.323 167.323c92.417 0 167.323-74.919 167.323-167.323 0-0.16 0-0.319-0.001-0.479v0.030c0-92.158-74.709-166.875-166.875-166.875v0zM1068.14 211.138h-195.134v55.625h55.625c12.315 0.22 22.752 8.031 26.833 18.947l27.881 83.637c1.071 2.632 1.704 5.693 1.704 8.887s-0.624 6.256-1.758 9.049l0.059-0.162-27.813 82.527c-4.296 10.931-14.688 18.547-26.881 18.695h-55.646c-0.432 212.798-170.096 385.813-381.539 391.643l-0.54 0.014c-1.361 0.020-2.964 0.030-4.569 0.030-217.312 0-393.479-176.167-393.479-393.479 0-1.131 0.006-2.261 0.017-3.39l-0.001 0.176v-216.573c0 0 0 0 0-0.001 0-92.158 74.709-166.875 166.875-166.875 0.16 0 0.32 0 0.48 0.001h584.944c15.361 0 27.813 12.45 27.813 27.813v0 27.813h167.323v-111.706c0-15.361 12.45-27.813 27.813-27.813s27.813 12.45 27.813 27.813v139.517c0 15.361-12.45 27.813-27.813 27.813v0zM148.515 266.763v216.573c-0.008 0.82-0.013 1.787-0.013 2.755 0 185.566 149.394 336.236 334.475 338.289l0.192 0.002h6.385c181.369-5.058 326.621-152.698 327.817-334.542l0.001-0.119v-334.201h-557.161c0 0-0.001 0-0.001 0-61.538 0-111.442 49.756-111.706 111.221v0.030zM908.561 434.097l19.141-55.625-19.141-55.625h-35.563v111.25z" />
<glyph unicode="&#xe93c;" glyph-name="legal" d="M928.823 266.233l-301.691 301.691 102.16 101.76c4.443 4.583 7.18 10.852 7.18 17.759s-2.736 13.169-7.187 17.767l-159.613 159.613c-4.583 4.443-10.852 7.18-17.759 7.18s-13.169-2.736-17.767-7.187l-279.34-279.34c-4.443-4.583-7.18-10.852-7.18-17.759s2.736-13.169 7.187-17.767l159.613-159.613c4.583-4.443 10.852-7.18 17.759-7.18s13.169 2.736 17.767 7.187l-0.008-0.008 101.76 102.16 301.691-301.691c4.583-4.443 10.852-7.18 17.759-7.18s13.169 2.736 17.767 7.187l39.897 39.897c4.443 4.583 7.18 10.852 7.18 17.759s-2.736 13.169-7.187 17.767l0.008-0.008zM529.759 541.98c-39.905-39.905-63.047-63.047-77.819-76.615v0l-10.778-10.778c-3.224-2.993-7.297-5.113-11.824-5.961l-0.146-0.025c-3.131 0.343-5.819 1.985-7.557 4.362l-10.805 10.805-102.955 104.156 243.83 243.83 124.508-124.103zM511.803 193.6h-54.668v94.976c-0.227 13.709-11.393 24.74-25.141 24.74-0.001 0-0.003 0-0.004 0h-239.431c-13.662 0-24.74-11.077-24.74-24.74v0-94.976h-55.071c-13.662 0-24.74-11.077-24.74-24.74v0-119.716c0-0.001 0-0.002 0-0.004 0-13.748 11.031-24.914 24.723-25.14h399.077c13.885 0 25.145 11.26 25.145 25.145v0 119.716c-0.227 13.709-11.393 24.74-25.141 24.74-0.001 0-0.003 0-0.004 0v0zM217.695 263.431h189.554v-69.831h-189.554zM487.065 73.884h-349.179v69.831h349.179z" />
<glyph unicode="&#xe93d;" glyph-name="lightning" d="M629.376 920.491c-4.779-1.749-454.827-482.475-460.672-492.117-6.101-9.941-2.645-26.368 6.955-33.195 2.517-1.792 57.173-22.955 121.387-47.019 64.256-24.064 117.504-44.459 118.357-45.269 0.896-0.896-10.752-63.019-28.544-152.192-33.408-167.125-32.299-158.293-20.907-169.685 10.837-10.837 26.069-9.856 38.656 2.475 17.109 16.725 447.701 479.275 450.688 484.139 5.888 9.6 2.731 25.899-6.357 33.067-2.176 1.749-56.789 22.912-121.387 47.061-64.597 24.192-118.101 44.587-118.955 45.397-0.896 0.853 10.837 63.488 28.544 152.149 32.597 162.987 31.701 156.715 23.040 167.765-6.571 8.32-19.669 11.477-30.805 7.424zM572.331 694.229c-12.544-62.635-22.784-116.224-22.784-119.040 0-6.699 4.821-16 10.325-20.053 2.389-1.749 54.101-21.845 114.901-44.629l110.507-41.472-171.776-184.149c-100.458-108.131-158.619-170.25-216.88-232.275l38.618 41.512-6.443-6.613 22.827 114.091c12.544 62.72 22.827 116.395 22.827 119.211-0.634 8.211-4.618 15.381-10.571 20.225l-0.053 0.042c-2.56 1.877-54.272 22.016-114.901 44.672l-110.251 41.259 177.835 190.549c97.835 104.789 178.048 190.549 178.219 190.549 0.213 0-9.856-51.243-22.4-113.877z" />
<glyph unicode="&#xe93e;" glyph-name="engineer" horiz-adv-x="879" d="M579.255 313.568l-23.108 10.665 19.101 16.887c42.65 37.62 69.492 92.303 69.765 153.262v0.048c-0.137 14.549-1.744 28.647-4.693 42.251l0.249-1.368-3.995 19.997h69.324c1.056-0.143 2.277-0.221 3.521-0.221 15.462 0 27.987 12.533 27.987 27.987s-12.533 27.987-27.987 27.987c-1.241 0-2.462-0.083-3.66-0.237l0.143 0.016h-16.435v61.325c-0.346 74.334-51.058 136.731-119.749 154.835l-1.121 0.252-12.443 3.114v63.991c-0.251 15.268-12.688 27.552-27.987 27.552-0.001 0-0.003 0-0.004 0h-177.752c-15.215 0-27.552-12.336-27.552-27.552v0-63.991l-12.443-3.114c-69.81-18.356-120.527-80.753-120.872-155.049v-61.363h-16.887c-13.874-1.803-24.476-13.552-24.476-27.773s10.603-25.966 24.333-27.75l0.143-0.016h49.771l15.998-19.997c-2.699-12.229-4.307-26.336-4.443-40.79l-0.001-0.099c0.273-61.006 27.116-115.69 69.543-153.115l19.326-17.082-23.108-10.665c-117.988-54.667-198.486-171.837-199.071-307.875v-0.079c-0.143-1.056-0.221-2.277-0.221-3.521 0-15.462 12.533-27.987 27.987-27.987s27.987 12.533 27.987 27.987c0 1.241-0.083 2.462-0.237 3.66l0.016-0.143c6.187 151.677 130.649 272.292 283.29 272.292s277.097-120.615 283.27-271.73l0.020-0.559c-0.143-1.056-0.221-2.277-0.221-3.521 0-15.462 12.533-27.987 27.987-27.987s27.987 12.533 27.987 27.987c0 1.241-0.083 2.462-0.237 3.66l0.016-0.143c-0.594 136.113-81.090 253.283-196.982 307.076l-2.107 0.873zM245.085 672.182c0.922 37.915 21.74 70.767 52.38 88.604l0.5 0.263 24.885 16.435v-60.878c-0.143-1.056-0.221-2.277-0.221-3.521 0-15.462 12.533-27.987 27.987-27.987s27.987 12.533 27.987 27.987c0 1.241-0.083 2.462-0.237 3.66l0.016-0.143v149.754h122.203v-149.754c-0.143-1.056-0.221-2.277-0.221-3.521 0-15.462 12.533-27.987 27.987-27.987s27.987 12.533 27.987 27.987c0 1.241-0.083 2.462-0.237 3.66l0.016-0.143v60.878l24.885-14.658c31.139-18.105 51.962-50.961 52.876-88.747l0.003-0.129v-63.102h-388.827zM439.277 344.232c0 0 0 0-0.001 0-82.708 0-149.754 67.046-149.754 149.754 0 0.154 0 0.314 0.001 0.468v-0.026c0.332 17.983 3.891 35.044 10.118 50.749l-0.342-0.981 3.555 11.111h273.293l3.555-11.111c5.886-14.727 9.445-31.786 9.774-49.632l0.002-0.138c0-82.954-67.247-150.206-150.206-150.206v0z" />
<glyph unicode="&#xe93f;" glyph-name="hvac" horiz-adv-x="1424" d="M1186.736 648.537c-1.564-0.045-3.429-0.058-5.276-0.058-46.775 0-90.083 14.811-125.5 39.977l0.664-0.448c-44.616 30.041-99.586 47.967-158.737 47.967s-114.118-17.91-159.772-48.615l1.024 0.652c-36.448-25.044-81.54-40.012-130.111-40.012s-93.664 14.955-130.903 40.512l0.784-0.515c-42.872 29.645-95.968 47.355-153.198 47.355-2.248 0-4.501-0.021-6.751-0.088l0.338 0.011c-13.544-1.766-23.882-13.227-23.882-27.109s10.347-25.342 23.745-27.089l0.133-0.016c1.564 0.045 3.429 0.058 5.276 0.058 46.775 0 90.083-14.811 125.5-39.977l-0.664 0.448c44.508-29.969 99.319-47.85 158.302-47.85s113.801 17.874 159.336 48.498l-1.024-0.648c36.471 24.998 81.548 39.909 130.111 39.909s93.643-14.919 130.903-40.429l-0.796 0.52c42.78-29.63 95.767-47.324 152.893-47.324 1.896 0 3.796 0.016 5.693 0.052l-0.279-0.008c1.024-0.133 2.219-0.218 3.436-0.218 15.097 0 27.326 12.229 27.326 27.326s-12.229 27.326-27.326 27.326c-1.204 0-2.398-0.084-3.58-0.232l0.133 0.016zM1186.736 431.678c-1.564-0.045-3.429-0.058-5.276-0.058-46.775 0-90.083 14.811-125.5 39.977l0.664-0.448c-44.616 30.041-99.586 47.967-158.737 47.967s-114.118-17.91-159.772-48.615l1.024 0.652c-36.448-25.044-81.54-40.012-130.111-40.012s-93.664 14.955-130.903 40.512l0.784-0.515c-42.872 29.645-95.968 47.355-153.198 47.355-2.248 0-4.501-0.021-6.751-0.088l0.338 0.011c-13.544-1.766-23.882-13.227-23.882-27.109s10.347-25.342 23.745-27.089l0.133-0.016c1.564 0.045 3.429 0.058 5.276 0.058 46.775 0 90.083-14.811 125.5-39.977l-0.664 0.448c44.508-29.969 99.319-47.85 158.302-47.85s113.801 17.874 159.336 48.498l-1.024-0.648c36.471 24.998 81.548 39.909 130.111 39.909s93.643-14.919 130.903-40.429l-0.796 0.52c42.78-29.63 95.767-47.324 152.893-47.324 1.896 0 3.796 0.016 5.693 0.052l-0.279-0.008c1.024-0.133 2.219-0.218 3.436-0.218 15.097 0 27.326 12.229 27.326 27.326s-12.229 27.326-27.326 27.326c-1.204 0-2.398-0.084-3.58-0.232l0.133 0.016zM1186.736 214.825c-1.564-0.045-3.429-0.058-5.276-0.058-46.775 0-90.083 14.811-125.5 39.977l0.664-0.448c-44.616 30.041-99.586 47.967-158.737 47.967s-114.118-17.91-159.772-48.615l1.024 0.652c-36.448-25.044-81.54-40.012-130.111-40.012s-93.664 14.955-130.903 40.512l0.784-0.515c-42.872 29.645-95.968 47.355-153.198 47.355-2.248 0-4.501-0.021-6.751-0.088l0.338 0.011c-13.544-1.766-23.882-13.227-23.882-27.109s10.347-25.342 23.745-27.089l0.133-0.016c1.564 0.045 3.429 0.058 5.276 0.058 46.775 0 90.083-14.811 125.5-39.977l-0.664 0.448c44.508-29.969 99.319-47.85 158.302-47.85s113.801 17.874 159.336 48.498l-1.024-0.648c36.471 24.998 81.548 39.909 130.111 39.909s93.643-14.919 130.903-40.429l-0.796 0.52c42.78-29.63 95.767-47.324 152.893-47.324 1.896 0 3.796 0.016 5.693 0.052l-0.279-0.008c1.024-0.133 2.219-0.218 3.436-0.218 15.097 0 27.326 12.229 27.326 27.326s-12.229 27.326-27.326 27.326c-1.204 0-2.398-0.084-3.58-0.232l0.133 0.016z" />
<glyph unicode="&#xe940;" glyph-name="engineering" horiz-adv-x="1427" d="M1206.32 824h-986.223c-16.889 0-30.573-13.692-30.573-30.573v0-690.353c0-0.002 0-0.003 0-0.005 0-16.99 13.629-30.785 30.546-31.060h986.258c17.158 0 31.066 13.908 31.066 31.066v0 690.353c-0.276 16.943-14.076 30.573-31.061 30.573-0.002 0-0.004 0-0.006 0v0zM1175.756 478.815h-530.093v68.048c-2.002 15.392-15.039 27.158-30.815 27.158s-28.813-11.772-30.808-27.001l-0.023-0.162v-197.241c-0.163-1.172-0.251-2.526-0.251-3.908 0-17.158 13.908-31.066 31.066-31.066s31.066 13.908 31.066 31.066c0 1.382-0.088 2.736-0.258 4.065l0.023-0.162v67.562h530.093v-283.537h-184.92v117.362c-2.002 15.392-15.039 27.158-30.815 27.158s-28.813-11.772-30.808-27.001l-0.023-0.162v-117.362h-678.037v628.722h678.037v-116.864c-0.163-1.172-0.251-2.526-0.251-3.908 0-17.158 13.908-31.066 31.066-31.066s31.066 13.908 31.066 31.066c0 1.382-0.088 2.736-0.258 4.065l0.023-0.162v116.864h184.92z" />
<glyph unicode="&#xe941;" glyph-name="drywall" horiz-adv-x="1021" d="M909.676 871.989h-229.851c-1.139 0.187-2.448 0.297-3.786 0.297s-2.644-0.11-3.921-0.32l0.135 0.023-570.639-254.649c-8.24-3.779-13.857-11.95-13.863-21.433v-297.511c1.018-8.697 6.33-15.958 13.722-19.686l0.142-0.069 569.377-252.122c2.711-1.289 5.881-2.054 9.231-2.097h229.447c13.274 0.238 23.952 11.052 23.952 24.367 0 0.002 0 0.003 0 0.005v0 799.655c-0.238 13.048-10.869 23.532-23.947 23.532-0.002 0-0.003 0-0.005 0v0zM136.081 581.622l522.312 231.117v-729.058l-523.582 230.698zM886.144 71.076h-182.37v753.849h182.37z" />
<glyph unicode="&#xe942;" glyph-name="fence" horiz-adv-x="1130" d="M824.266 32h172.879c15.041 0 27.225 12.194 27.225 27.225v0 691.529c-0.192 7.375-3.119 14.033-7.794 19.034l0.019-0.020-86.446 86.446c-4.966 4.81-11.757 7.777-19.232 7.777s-14.265-2.968-19.241-7.785l-86.437-86.437c-4.656-4.981-7.583-11.639-7.774-18.979l-0.001-0.035v-146.090h-118.854v146.090c-0.192 7.375-3.119 14.033-7.794 19.034l0.019-0.020-86.446 86.446c-4.966 4.81-11.757 7.777-19.232 7.777s-14.265-2.968-19.241-7.785l-86.437-86.437c-4.656-4.981-7.583-11.639-7.774-18.979l-0.001-0.035v-146.090h-118.854v146.090c-0.192 7.375-3.119 14.033-7.794 19.034l0.019-0.020-86.446 86.446c-4.966 4.81-11.757 7.777-19.232 7.777s-14.265-2.968-19.241-7.785l-86.437-86.437c-4.656-4.981-7.583-11.639-7.774-18.979l-0.001-0.035v-691.529c0-0.001 0-0.003 0-0.004 0-14.89 11.942-26.981 26.773-27.222h172.907c15.041 0 27.225 12.194 27.225 27.225v0 145.654h118.854v-145.654c0-0.001 0-0.003 0-0.004 0-14.89 11.942-26.981 26.773-27.222h172.907c15.041 0 27.225 12.194 27.225 27.225v0 145.654h118.854v-145.654c0-0.001 0-0.003 0-0.004 0-14.89 11.942-26.981 26.773-27.222h0.026zM851.492 739.527l59.209 59.209 59.645-59.209v-653.501h-118.854zM278.82 86.026h-118.854v653.501l59.209 59.209 59.645-59.209zM451.706 258.905h-118.854v291.744h118.854zM624.586 86.026h-118.854v653.501l59.209 59.209 59.645-59.209zM678.611 258.905v291.744h118.854v-291.744z" />
<glyph unicode="&#xe943;" glyph-name="cleaning" horiz-adv-x="867" d="M674.466 169.212h-481.895c-14.602 0.239-26.348 12.124-26.348 26.769 0 0.001 0 0.002 0 0.004v0 135.987c0.909 13.909 12.313 24.872 26.328 25.072h481.922c14.602-0.239 26.348-12.124 26.348-26.769 0-0.001 0-0.002 0-0.004v0-135.987c-0.909-13.909-12.313-24.872-26.328-25.072h-0.020zM219.333 222.333h428.358v84.992h-428.358zM723.334-56.017h-579.643c-8.268 0.202-15.58 4.122-20.356 10.144l-0.042 0.055c-3.853 4.497-6.198 10.384-6.198 16.82 0 1.262 0.090 2.503 0.265 3.717l-0.017-0.139 48.87 225.228c2.794 11.953 13.321 20.735 25.913 20.828h482.336c0.047 0 0.104 0 0.153 0 12.594 0 23.125-8.837 25.73-20.648l0.027-0.175 48.87-225.228c0.418-1.744 0.657-3.744 0.657-5.807 0-6.194-2.169-11.872-5.796-16.339l0.037 0.047c-4.901-5.253-11.865-8.528-19.593-8.528-0.433 0-0.863 0.010-1.287 0.027l0.060-0.002zM176.837-2.895h513.349l-36.971 169.983h-438.982zM277.98-56.017c-14.786 0-26.772 11.987-26.772 26.772v0 225.228c1.728 13.258 12.96 23.402 26.552 23.402s24.83-10.14 26.546-23.271l0.015-0.135v-225.228c0-0.001 0-0.002 0-0.003 0-14.637-11.746-26.53-26.325-26.769h-0.023zM433.512-56.017c-14.602 0.239-26.348 12.124-26.348 26.769 0 0.001 0 0.002 0 0.004v0 225.228c1.728 13.258 12.96 23.402 26.552 23.402s24.83-10.14 26.546-23.271l0.015-0.135v-225.228c0-14.786-11.987-26.772-26.772-26.772v0zM355.744-56.017c-14.416 0.468-25.922 12.272-25.922 26.759 0 0.005 0 0.010 0 0.014v-0.001 225.228c1.728 13.258 12.96 23.402 26.552 23.402s24.83-10.14 26.546-23.271l0.015-0.135v-225.228c0-0.001 0-0.002 0-0.003 0-14.786-11.987-26.772-26.772-26.772-0.15 0-0.298 0.001-0.447 0.004h0.023zM589.473-56.017c-14.786 0-26.772 11.987-26.772 26.772v0 225.228c1.728 13.258 12.96 23.402 26.552 23.402s24.83-10.14 26.546-23.271l0.015-0.135v-225.228c0-0.001 0-0.002 0-0.003 0-14.637-11.746-26.53-26.325-26.769h-0.023zM511.705-56.017c-14.786 0-26.772 11.987-26.772 26.772v0 225.228c1.728 13.258 12.96 23.402 26.552 23.402s24.83-10.14 26.546-23.271l0.015-0.135v-225.228c0-0.001 0-0.002 0-0.003 0-14.637-11.746-26.53-26.325-26.769h-0.023zM475.158 305.627h-84.992c-0.001 0-0.002 0-0.003 0-14.637 0-26.53 11.746-26.769 26.325v593.689c0.209 14.626 12.114 26.402 26.77 26.402 0.594 0 1.193-0.020 1.783-0.058l-0.080 0.004h84.992c0.001 0 0.002 0 0.003 0 14.637 0 26.53-11.746 26.769-26.325v-594.964c-0.891-14.062-12.513-25.13-26.722-25.13-0.616 0-1.224 0.021-1.832 0.062l0.082-0.005zM418.214 357.043h30.597v541.814h-30.597z" />
<glyph unicode="&#xe944;" glyph-name="wall" d="M307.81 770.015c-198.415-0.875-199.859-0.919-204.672-4.463-2.625-2.013-6.432-5.819-8.444-8.444l-3.588-4.856v-608.502l3.588-4.856c2.013-2.625 5.819-6.432 8.444-8.444 4.812-3.544 6.256-3.588 206.859-4.463 111.087-0.481 292.919-0.481 404.006 0 200.603 0.875 202.047 0.919 206.859 4.463 2.625 2.013 6.432 5.819 8.444 8.444 3.588 4.856 3.588 4.988 4.113 302.676 0.263 163.807 0 301.188-0.569 305.345-1.836 9.353-7.848 17.007-15.972 21.054l-0.172 0.078c-5.775 2.363-303.157 3.325-608.896 1.969zM483.998 644.884v-70.878h-337.766v141.756h337.766v-70.878zM877.766 644.884v-70.878h-337.766v141.756h337.766v-70.878zM287.99 448v-71.753h-141.756v143.507h141.756v-71.753zM681.758 448v-71.71h-339.515v143.419h339.515v-71.71zM877.766 448v-71.753h-141.756v143.507h141.756v-71.753zM483.998 251.116v-70.878h-337.766v141.756h337.766v-70.878zM877.766 251.116v-70.878h-337.766v141.756h337.766v-70.878z" />
<glyph unicode="&#xe945;" glyph-name="roof" d="M613.66 201.515h-565.541c-0.112-0.007-0.248-0.011-0.381-0.011-10.797 0-19.564 8.772-19.564 19.564 0 3.348 0.843 6.506 2.331 9.265l-0.042-0.112 181.464 361.349c3.163 6.584 9.758 11.044 17.423 11.044 0.087 0 0.165-0.001 0.266-0.006h565.529c10.929-0.073 19.743-8.948 19.743-19.897 0-3.216-0.751-6.267-2.119-8.948l0.042 0.112-181.464-361.668c-3.216-6.413-9.728-10.744-17.269-10.744-0.143 0-0.297 0.004-0.427 0.011l0.011-0.001zM80.002 240.957h521.677l161.587 322.22h-521.677zM330.893 201.515c-0.112-0.007-0.227-0.011-0.35-0.011-3.121 0-6.036 0.821-8.566 2.261l0.073-0.042c-6.923 3.213-11.655 10.097-11.655 18.101 0 3.059 0.689 5.945 1.922 8.517l-0.042-0.115 182.419 361.349c3.586 5.505 9.727 9.080 16.692 9.080 10.982 0 19.897-8.895 19.897-19.897 0-2.458-0.451-4.827-1.273-7.003l0.042 0.143-181.464-361.668c-3.432-6.399-10.053-10.669-17.678-10.744h-0.011zM613.66 201.515c-0.042-0.001-0.073-0.001-0.112-0.001-3.194 0-6.214 0.821-8.813 2.261l0.1-0.042c-6.522 3.353-10.888 10.027-10.888 17.731 0 3.194 0.751 6.214 2.099 8.895l-0.042-0.112 181.464 361.349c3.586 5.505 9.727 9.080 16.692 9.080 10.982 0 19.897-8.895 19.897-19.897 0-2.458-0.451-4.827-1.273-7.003l0.042 0.143-181.464-361.668c-3.432-6.399-10.053-10.669-17.678-10.744h-0.011zM976.601 201.515c-7.623 0.073-14.232 4.35-17.608 10.621l-0.042 0.112-181.464 361.668c-1.213 2.516-1.922 5.435-1.922 8.556 0 7.407 4.048 13.848 10.027 17.269l0.112 0.042c2.6 1.359 5.651 2.146 8.926 2.146 7.693 0 14.341-4.418 17.539-10.872l0.042-0.112 181.464-361.349c1.359-2.6 2.146-5.651 2.146-8.926 0-7.693-4.418-14.341-10.872-17.539l-0.112-0.042c-2.146-1.006-4.634-1.603-7.284-1.603-0.328 0-0.644 0.011-0.975 0.011l0.042-0.006zM472.282 201.515c-0.042-0.001-0.073-0.001-0.112-0.001-3.194 0-6.214 0.821-8.813 2.261l0.1-0.042c-6.522 3.353-10.888 10.027-10.888 17.731 0 3.194 0.751 6.214 2.099 8.895l-0.042-0.112 181.464 361.349c2.877 7.654 10.15 13.016 18.664 13.016 10.982 0 19.897-8.895 19.897-19.897 0-4.026-1.182-7.755-3.247-10.898l0.042 0.073-181.464-361.668c-3.432-6.399-10.053-10.669-17.678-10.744h-0.011zM47.809 201.515c-0.042-0.001-0.073-0.001-0.112-0.001-3.194 0-6.214 0.821-8.813 2.261l0.1-0.042c-6.421 3.3-10.744 9.881-10.744 17.454 0 3.317 0.821 6.421 2.261 9.157l-0.042-0.112 181.464 361.349c3.317 6.452 9.912 10.775 17.524 10.775 10.828 0 19.611-8.785 19.611-19.611 0-3.216-0.79-6.267-2.149-8.948l0.042 0.112-181.464-361.668c-3.432-6.399-10.053-10.669-17.678-10.744h-0.011zM189.513 201.515c-0.112-0.007-0.227-0.011-0.35-0.011-3.121 0-6.036 0.821-8.566 2.261l0.073-0.042c-6.553 3.247-10.982 9.912-10.982 17.577 0 3.247 0.79 6.337 2.199 9.037l-0.042-0.112 181.464 361.349c3.348 6.28 9.842 10.489 17.339 10.489 3.356 0 6.522-0.843 9.287-2.331l-0.112 0.042c6.522-3.353 10.888-10.027 10.888-17.731 0-3.194-0.751-6.214-2.099-8.895l0.042 0.112-181.464-361.041c-3.432-6.399-10.053-10.669-17.678-10.744h-0.011zM448.91 563.183h-132.557c-10.797 0-19.564 8.772-19.564 19.564v0 92.155c0 10.797 8.772 19.564 19.564 19.564v0h132.557c0.482 0.042 1.028 0.067 1.583 0.067 10.797 0 19.564-8.772 19.564-19.564 0-0.011 0-0.042 0-0.073v0.010-92.155c0-0.011 0-0.042 0-0.067 0-10.797-8.772-19.564-19.564-19.564-0.557 0-1.090 0.011-1.653 0.073l0.073-0.011zM336.254 602.629h92.782v52.393h-92.782z" />
<glyph unicode="&#xe946;" glyph-name="smart-security" d="M880.755 766.214h-124.339v50.915c-0.211 12.673-10.533 22.872-23.245 22.872-0.001 0-0.003 0-0.004 0h-590.307c-12.63 0-22.872-10.241-22.872-22.872v0-368.947c0-0.001 0-0.002 0-0.004 0-12.712 10.199-23.034 22.859-23.244h309.192v-212.147h-138.354v87.808c-0.211 12.673-10.533 22.872-23.245 22.872-0.001 0-0.003 0-0.004 0h-147.573c-12.63 0-22.872-10.241-22.872-22.872v0-221.361c0-0.001 0-0.002 0-0.004 0-12.712 10.199-23.034 22.859-23.244h147.598c12.837 0 23.249 10.412 23.249 23.249v0 87.442h161.233c12.837 0 23.249 10.412 23.249 23.249v0 235.019h235.019c12.837 0 23.249 10.412 23.249 23.249v0 50.544h124.339c12.837 0 23.249 10.412 23.249 23.249v0 221.361c-0.211 12.673-10.533 22.872-23.245 22.872-0.001 0-0.003 0-0.004 0v0zM267.573 102.12h-101.456v175.251h101.456zM710.307 471.055h-544.186v322.827h544.186zM857.88 544.85h-101.456v175.251h101.456z" />
</font>
</defs>
</svg>
